<?xml version="1.0" standalone="no"?>
<!DOCTYPE svg PUBLIC "-//W3C//DTD SVG 1.1//EN" "http://www.w3.org/Graphics/SVG/1.1/DTD/svg11.dtd" >
<svg xmlns="http://www.w3.org/2000/svg" xmlns:xlink="http://www.w3.org/1999/xlink" version="1.1">
<metadata>
Created by FontForge 20161013 at Thu Jun  5 16:26:58 2014
 By ,,,
Digitized data copyright (c) 2012-2014, The Mozilla Foundation and Telefonica S.A.
</metadata>
<defs>
<font id="FiraSans-LightItalic" horiz-adv-x="560" >
  <font-face 
    font-family="Fira Sans Light"
    font-weight="300"
    font-style="italic"
    font-stretch="normal"
    units-per-em="1000"
    panose-1="2 11 4 3 5 0 0 2 0 4"
    ascent="785"
    descent="-215"
    x-height="523"
    cap-height="685"
    bbox="-211 -500 1360 1050"
    underline-thickness="0"
    underline-position="0"
    slope="-8"
    unicode-range="U+000D-1F310"
  />
<missing-glyph horiz-adv-x="663" 
d="M16 -500l218 1550h418l-218 -1550h-418zM78 -448h309l203 1446h-309zM422 426q23 -25 23 -66q0 -9 -2 -27q-7 -52 -32.5 -80t-76.5 -35l-8 -47q-1 -10 -9 -16t-16 -6q-11 0 -18 7.5t-6 18.5l10 82q53 3 75.5 21t28.5 59q1 8 1 20q0 23 -11 34.5t-39 11.5q-17 0 -29 -2.5
t-25 -9.5l-13 -2q-12 0 -18.5 7.5t-4.5 18.5q2 18 31.5 27t62.5 9q53 0 76 -25zM315 111q9 -9 9 -23q0 -17 -11 -28.5t-26 -11.5q-16 0 -25 11.5t-7 28.5q1 14 11.5 23t24.5 9q15 0 24 -9z" />
    <glyph glyph-name="fi" unicode="fi" horiz-adv-x="565" 
d="M423 0h-58l67 476h-234l-64 -459q-9 -68 -29 -108t-51.5 -64t-87.5 -49l-17 45q41 19 65 37.5t39.5 51.5t23.5 89l64 457h-91l7 47h91l12 87q8 63 53 98t120 35t137 -42l-24 -39q-25 16 -54.5 25t-58.5 9q-53 0 -81.5 -22t-35.5 -68l-11 -83h292z" />
    <glyph glyph-name="fl" unicode="fl" horiz-adv-x="600" 
d="M506 46l13 -43q-31 -14 -63 -14q-38 0 -58.5 20t-20.5 59q0 6 2 24l81 580q-33 12 -63 17.5t-67 5.5q-51 0 -79 -22t-35 -67l-11 -83h137l-13 -47h-131l-64 -459q-9 -68 -29 -108t-51.5 -64t-87.5 -49l-17 45q41 19 65 37.5t39.5 51.5t23.5 89l64 457h-91l7 47h91l12 87
q8 63 53 98t118 35t139 -25l54 6l-89 -636q-1 -6 -1 -16q0 -17 8 -25.5t26 -8.5q19 0 38 8z" />
    <glyph glyph-name=".notdef" horiz-adv-x="663" 
d="M16 -500l218 1550h418l-218 -1550h-418zM78 -448h309l203 1446h-309zM422 426q23 -25 23 -66q0 -9 -2 -27q-7 -52 -32.5 -80t-76.5 -35l-8 -47q-1 -10 -9 -16t-16 -6q-11 0 -18 7.5t-6 18.5l10 82q53 3 75.5 21t28.5 59q1 8 1 20q0 23 -11 34.5t-39 11.5q-17 0 -29 -2.5
t-25 -9.5l-13 -2q-12 0 -18.5 7.5t-4.5 18.5q2 18 31.5 27t62.5 9q53 0 76 -25zM315 111q9 -9 9 -23q0 -17 -11 -28.5t-26 -11.5q-16 0 -25 11.5t-7 28.5q1 14 11.5 23t24.5 9q15 0 24 -9z" />
    <glyph glyph-name=".null" horiz-adv-x="0" 
 />
    <glyph glyph-name="nonmarkingreturn" horiz-adv-x="333" 
 />
    <glyph glyph-name="CR" unicode="&#xd;" horiz-adv-x="276" 
 />
    <glyph glyph-name="space" unicode=" " horiz-adv-x="276" 
 />
    <glyph glyph-name="exclam" unicode="!" horiz-adv-x="238" 
d="M86 218l61 467h61l-70 -467h-52zM125 71.5q12 -12.5 12 -31.5q0 -22 -14.5 -36.5t-36.5 -14.5q-19 0 -31.5 12.5t-12.5 30.5q0 22 15 37t36 15q20 0 32 -12.5z" />
    <glyph glyph-name="quotedbl" unicode="&#x22;" horiz-adv-x="360" 
d="M349 685l-44 -251h-44l27 251h61zM191 685l-44 -251h-44l27 251h61z" />
    <glyph glyph-name="numbersign" unicode="#" horiz-adv-x="500" 
d="M373 227h71l-6 -47h-78l-49 -180h-54l49 180h-178l-49 -180h-53l49 180h-72l7 47h78l61 225h-70l6 47h77l45 166h53l-45 -166h178l46 166h53l-45 -166h72l-6 -47h-79zM202 452l-61 -225h178l62 225h-179z" />
    <glyph glyph-name="dollar" unicode="$" horiz-adv-x="521" 
d="M417.5 310.5q43.5 -41.5 43.5 -108.5q0 -49 -21.5 -95t-69.5 -78.5t-123 -38.5l-20 -141h-51l20 141q-112 6 -184 83l38 35q64 -69 164 -69q91 0 139 45.5t48 115.5q0 45 -31 75t-104 55q-87 28 -127.5 68t-40.5 101q0 46 22.5 84.5t66.5 63t105 27.5l21 145h50l-20 -145
q46 -4 82 -22.5t71 -51.5l-38 -35q-62 61 -144 61q-70 0 -113.5 -32t-43.5 -93q0 -45 30 -72t104 -51q83 -26 126.5 -67.5z" />
    <glyph glyph-name="percent" unicode="%" horiz-adv-x="790" 
d="M150 -24l-40 28l559 699l40 -27zM352.5 640q35.5 -36 35.5 -97q0 -44 -17.5 -88t-55.5 -74t-97 -30t-95 37t-36 98q0 43 17.5 87t56 73.5t96.5 29.5q60 0 95.5 -36zM187.5 609q-26.5 -25 -37 -59.5t-10.5 -65.5q0 -42 18.5 -66.5t59.5 -24.5q44 0 70 25.5t37 60.5t11 65
q0 41 -18.5 65.5t-59.5 24.5q-44 0 -70.5 -25zM687.5 278q35.5 -36 35.5 -97q0 -44 -17.5 -88t-55.5 -74t-97 -30t-95 37t-36 98q0 43 17.5 87t56 73.5t96.5 29.5q60 0 95.5 -36zM522.5 247q-26.5 -25 -37 -59.5t-10.5 -65.5q0 -41 18.5 -66t59.5 -25q44 0 70 25.5t37 60.5
t11 65q0 41 -18.5 65.5t-59.5 24.5q-44 0 -70.5 -25z" />
    <glyph glyph-name="ampersand" unicode="&#x26;" horiz-adv-x="741" 
d="M431.5 678.5q36.5 -17.5 57 -48t20.5 -67.5q0 -62 -42 -105t-141 -94l178 -192q49 79 88 173l52 -19q-50 -109 -107 -190l104 -114l-46 -32l-95 105q-49 -51 -106 -78.5t-130 -27.5q-54 0 -95.5 22t-64 60.5t-22.5 85.5q0 66 36 116.5t129 99.5q-39 44 -58 81.5t-19 76.5
q0 75 49 120t130 45q46 0 82.5 -17.5zM257.5 615.5q-30.5 -35.5 -30.5 -84.5q0 -31 15.5 -63t51.5 -71q88 45 123 81t35 85q0 40 -29.5 64t-73.5 24q-61 0 -91.5 -35.5zM170.5 253.5q-29.5 -43.5 -29.5 -94.5q0 -52 35 -87t93 -35q60 0 107 24t91 70l-189 208
q-78 -42 -107.5 -85.5z" />
    <glyph glyph-name="quotesingle" unicode="'" horiz-adv-x="201" 
d="M191 685l-44 -251h-44l27 251h61z" />
    <glyph glyph-name="parenleft" unicode="(" horiz-adv-x="321" 
d="M240.5 670q-40.5 -61 -71 -140t-45.5 -183q-9 -64 -9 -118q0 -98 25 -174t75 -170l-39 -21q-41 73 -64.5 122.5t-39 112.5t-15.5 138q0 53 9 116q15 109 49.5 192t77.5 144t118 150l35 -28q-65 -80 -105.5 -141z" />
    <glyph glyph-name="parenright" unicode=")" horiz-adv-x="320" 
d="M234 713.5q24 -49.5 39.5 -111.5t15.5 -138q0 -56 -10 -117q-15 -109 -49.5 -192t-77.5 -144t-118 -150l-35 28q65 79 106 140.5t71.5 141t45.5 182.5q9 66 9 120q0 98 -25 173t-76 169l39 21q41 -73 65 -122.5z" />
    <glyph glyph-name="asterisk" unicode="*" horiz-adv-x="433" 
d="M369 420l-49 -34l-67 132l-103 -132l-42 33l116 122l-146 41l22 50l141 -56l14 160h58l-31 -158l152 57l11 -53l-158 -40z" />
    <glyph glyph-name="plus" unicode="+" horiz-adv-x="490" 
d="M435 356l-7 -50h-149l-22 -152h-55l22 152h-149l7 50h149l22 152h55l-22 -152h149z" />
    <glyph glyph-name="comma" unicode="," horiz-adv-x="208" 
d="M107 71.5q12 -12.5 12 -31.5q0 -12 -5 -25t-16 -34l-75 -132h-43l62 148q-18 11 -18 36q0 21 15 36t36 15q20 0 32 -12.5z" />
    <glyph glyph-name="hyphen" unicode="-" horiz-adv-x="398" 
d="M341 338l-7 -50h-263l7 50h263z" />
    <glyph glyph-name="period" unicode="." horiz-adv-x="207" 
d="M106.5 71.5q11.5 -12.5 11.5 -31.5q0 -21 -14.5 -36t-36.5 -15q-19 0 -31 12.5t-12 30.5q0 22 14.5 37t36.5 15q20 0 31.5 -12.5z" />
    <glyph glyph-name="slash" unicode="/" horiz-adv-x="517" 
d="M117 -100l-49 14l356 890l49 -13z" />
    <glyph glyph-name="zero" unicode="0" horiz-adv-x="547" 
d="M456 616.5q44 -59.5 44 -174.5q0 -102 -25 -205.5t-83.5 -175.5t-152.5 -72q-84 0 -128 60t-44 175q0 101 25 204.5t83.5 175.5t152.5 72q84 0 128 -59.5zM135 330q-9 -67 -9 -116q0 -177 114 -177q150 0 192 298q9 68 9 117q0 176 -113 176q-151 0 -193 -298z" />
    <glyph glyph-name="one" unicode="1" horiz-adv-x="410" 
d="M195 0l84 597l-177 -103l-21 48l216 123h49l-93 -665h-58z" />
    <glyph glyph-name="two" unicode="2" horiz-adv-x="476" 
d="M399.5 633q44.5 -43 44.5 -114q0 -57 -28 -111.5t-104 -135.5t-230 -222l312 1l-16 -51h-373l7 50q166 155 243 237t103 130.5t26 99.5q0 53 -30 81.5t-82 28.5q-46 0 -83 -19.5t-74 -58.5l-39 35q46 48 94.5 70t105.5 22q79 0 123.5 -43z" />
    <glyph glyph-name="three" unicode="3" horiz-adv-x="484" 
d="M395 635q44 -41 44 -106q0 -60 -39.5 -111.5t-116.5 -64.5q57 -2 93 -39t36 -103q0 -50 -25 -101.5t-78.5 -86t-134.5 -34.5q-116 0 -180 88l40 32q28 -38 61.5 -54.5t78.5 -16.5q60 0 100.5 26.5t59.5 67t19 85.5q0 110 -130 110h-46l14 47h32q50 0 86 23.5t53.5 59.5
t17.5 72q0 47 -29 73.5t-80 26.5q-43 0 -79 -15.5t-78 -50.5l-30 38q46 38 92 56.5t98 18.5q77 0 121 -41z" />
    <glyph glyph-name="four" unicode="4" horiz-adv-x="516" 
d="M379 175l-25 -175h-56l24 175h-289l6 43l263 458l49 -20l-248 -433h226l34 195h50l-27 -195h89l-7 -48h-89z" />
    <glyph glyph-name="five" unicode="5" horiz-adv-x="484" 
d="M185 617l-34 -227q55 31 116 31q76 0 119.5 -47.5t43.5 -129.5q0 -57 -25.5 -116t-80.5 -99t-138 -40q-60 0 -103 21t-76 61l40 33q27 -34 60.5 -50t79.5 -16q64 0 105 33.5t60 81t19 92.5q0 64 -32 96.5t-86 32.5q-33 0 -58.5 -7.5t-57.5 -24.5h-47l45 323h334l-15 -48
h-269z" />
    <glyph glyph-name="six" unicode="6" horiz-adv-x="520" 
d="M424.5 389.5q43.5 -43.5 43.5 -124.5q0 -60 -25 -124t-76.5 -108t-127.5 -44q-92 0 -134 59.5t-42 163.5q0 46 7 92q16 114 56 198t99.5 129t132.5 45q37 0 66 -10t54 -30l-28 -39q-42 31 -94 31q-82 0 -142 -80.5t-82 -210.5q76 96 182 96q67 0 110.5 -43.5zM338 75
q38 38 55 91t17 100q0 60 -28.5 90t-76.5 30q-51 0 -97 -30.5t-84 -83.5q-4 -35 -4 -71q0 -81 29 -122.5t92 -41.5q59 0 97 38z" />
    <glyph glyph-name="seven" unicode="7" horiz-adv-x="434" 
d="M102 -8l-53 18l338 606h-307l6 49h370l-6 -45z" />
    <glyph glyph-name="eight" unicode="8" horiz-adv-x="535" 
d="M441 287q30 -37 30 -90q0 -55 -28 -102.5t-82.5 -76.5t-129.5 -29q-89 0 -140.5 46t-51.5 120q0 64 39 116.5t131 86.5q-94 46 -94 138q0 56 29.5 97t77 62t100.5 21q70 0 119.5 -38t49.5 -107q0 -62 -33.5 -103.5t-109.5 -76.5q63 -27 93 -64zM196.5 427.5
q24.5 -26.5 80.5 -47.5l29 -11q70 35 99 73t29 89q0 47 -30 73t-81 26q-69 0 -110 -38.5t-41 -95.5q0 -42 24.5 -68.5zM362 81.5q50 43.5 50 118.5q0 44 -29 72t-98 55l-31 12q-89 -34 -122.5 -81t-33.5 -104q0 -54 36 -85t99 -31q79 0 129 43.5z" />
    <glyph glyph-name="nine" unicode="9" horiz-adv-x="515" 
d="M437 622q44 -54 44 -149q0 -176 -85 -305t-312 -188l-10 46q142 42 225 115t108 197q-34 -42 -78 -66t-94 -24q-70 0 -113.5 49t-43.5 129q0 60 24.5 117.5t76 95t128.5 37.5q86 0 130 -54zM335.5 322.5q42.5 26.5 81.5 76.5q6 47 6 79q0 150 -115 150q-62 0 -101 -32
t-55.5 -79t-16.5 -94q0 -60 29.5 -93.5t80.5 -33.5q48 0 90.5 26.5z" />
    <glyph glyph-name="colon" unicode=":" horiz-adv-x="208" 
d="M106.5 71.5q11.5 -12.5 11.5 -31.5q0 -21 -14.5 -36t-36.5 -15q-19 0 -31 12.5t-12 30.5q0 22 14.5 37t36.5 15q20 0 31.5 -12.5zM161.5 461.5q11.5 -12.5 11.5 -31.5q0 -21 -14.5 -36t-36.5 -15q-19 0 -31 12.5t-12 30.5q0 22 14.5 37t36.5 15q20 0 31.5 -12.5z" />
    <glyph glyph-name="semicolon" unicode=";" horiz-adv-x="209" 
d="M107 71.5q12 -12.5 12 -31.5q0 -12 -5 -25t-16 -34l-75 -132h-43l62 148q-18 11 -18 36q0 21 15 36t36 15q20 0 32 -12.5zM163.5 461.5q11.5 -12.5 11.5 -31.5q0 -21 -14.5 -36t-36.5 -15q-19 0 -31 12.5t-12 30.5q0 22 14.5 37t36.5 15q20 0 31.5 -12.5z" />
    <glyph glyph-name="less" unicode="&#x3c;" horiz-adv-x="494" 
d="M124 332l296 -149l-28 -48l-323 171l8 54l369 169l17 -50z" />
    <glyph glyph-name="equal" unicode="=" horiz-adv-x="491" 
d="M447 443l-7 -51h-353l7 51h353zM423 269l-7 -51h-353l7 51h353z" />
    <glyph glyph-name="greater" unicode="&#x3e;" horiz-adv-x="494" 
d="M437 306l-370 -171l-16 49l339 151l-296 145l28 49l323 -169z" />
    <glyph glyph-name="question" unicode="?" horiz-adv-x="445" 
d="M405 660q40 -36 40 -92q0 -45 -17.5 -77t-43 -52t-68.5 -46q-36 -21 -56.5 -36.5t-34.5 -37.5t-14 -52q0 -19 5 -41l-52 -10q-10 28 -10 55q0 39 16.5 67t40 46.5t64.5 42.5q38 24 59.5 40.5t36 41t14.5 57.5q0 38 -26 59.5t-72 21.5q-45 0 -83.5 -18.5t-78.5 -57.5
l-36 34q46 47 95 69t107 22q74 0 114 -36zM217.5 71q11.5 -12 11.5 -31q0 -22 -14.5 -37t-36.5 -15q-19 0 -31 13t-12 31q0 22 14.5 36.5t36.5 14.5q20 0 31.5 -12z" />
    <glyph glyph-name="at" unicode="@" horiz-adv-x="1017" 
d="M774 651.5q83 -44.5 125.5 -121.5t42.5 -175q0 -80 -23 -159t-73 -131.5t-126 -52.5q-51 0 -78.5 30.5t-30.5 77.5q-62 -106 -160 -106q-65 0 -104 45.5t-39 125.5q0 70 25.5 138.5t80.5 114.5t138 46q76 0 141 -37l-36 -269q-2 -26 -2 -38q0 -81 64 -81q57 0 94 46.5
t54 115t17 136.5q0 87 -36 152.5t-106.5 101t-169.5 35.5q-150 0 -248.5 -72.5t-143.5 -180t-45 -214.5q0 -99 41.5 -175t118 -118t177.5 -42q99 0 194 34l12 -48q-54 -17 -100.5 -26t-107.5 -9q-114 0 -203.5 48t-139.5 135t-50 201q0 118 51.5 237t163 199.5t281.5 80.5
q118 0 201 -44.5zM545 94q38 34 57 77l36 248q-40 20 -84 20q-68 0 -110.5 -40.5t-60.5 -100t-18 -120.5q0 -58 24.5 -88t68.5 -30q49 0 87 34z" />
    <glyph glyph-name="A" unicode="A" horiz-adv-x="562" 
d="M127 187l-87 -187h-61l324 685h75l131 -685h-62l-33 187h-287zM334 636l-184 -398h255z" />
    <glyph glyph-name="B" unicode="B" horiz-adv-x="595" 
d="M495.5 319.5q38.5 -34.5 38.5 -101.5q0 -93 -64 -155.5t-209 -62.5h-187l96 685h170q96 0 151.5 -38t55.5 -112q0 -66 -39.5 -112.5t-114.5 -60.5q64 -8 102.5 -42.5zM187 384h132q54 0 92 20.5t57 54.5t19 74q0 102 -145 102h-120zM425 98q47 48 47 121q0 60 -39.5 88.5
t-108.5 28.5h-143l-40 -286h124q113 0 160 48z" />
    <glyph glyph-name="C" unicode="C" horiz-adv-x="548" 
d="M494 680q40 -16 75 -48l-37 -38q-30 27 -60 39t-69 12q-94 0 -155 -59.5t-88 -148t-27 -177.5q0 -109 48 -163.5t128 -54.5q49 0 84.5 15t75.5 44l28 -43q-85 -69 -192 -69t-170.5 71.5t-63.5 202.5q0 100 34.5 199.5t108.5 166.5t185 67q55 0 95 -16z" />
    <glyph glyph-name="D" unicode="D" horiz-adv-x="630" 
d="M505 629.5q76 -55.5 76 -200.5q0 -115 -36.5 -212t-117 -157t-206.5 -60h-147l96 685h134q125 0 201 -55.5zM141 50h89q104 0 169 55t93.5 141t28.5 184q0 121 -58.5 163t-155.5 42h-85z" />
    <glyph glyph-name="E" unicode="E" horiz-adv-x="509" 
d="M222 635l-36 -255h242l-6 -50h-242l-39 -280h293l-8 -50h-352l96 685h346l-14 -50h-280z" />
    <glyph glyph-name="F" unicode="F" horiz-adv-x="478" 
d="M222 635l-37 -267h237l-7 -50h-237l-45 -318h-59l96 685h340l-14 -50h-274z" />
    <glyph glyph-name="G" unicode="G" horiz-adv-x="615" 
d="M506 679q44 -17 83 -52l-40 -36q-32 29 -65 41.5t-78 12.5q-90 0 -151.5 -58t-91.5 -148t-30 -186q0 -107 47.5 -160t135.5 -53q79 0 147 37l35 242h-132l-1 50h199l-44 -322q-98 -58 -210 -58t-175.5 69.5t-63.5 201.5q0 106 37.5 206.5t113.5 165t184 64.5
q56 0 100 -17z" />
    <glyph glyph-name="H" unicode="H" horiz-adv-x="667" 
d="M180 335l-47 -335h-59l96 685h59l-42 -299h328l42 299h59l-96 -685h-60l48 335h-328z" />
    <glyph glyph-name="I" unicode="I" horiz-adv-x="281" 
d="M74 0l96 685h60l-96 -685h-60z" />
    <glyph glyph-name="J" unicode="J" horiz-adv-x="289" 
d="M130.5 -9q-20.5 -38 -56.5 -62.5t-97 -47.5l-13 45q49 20 76 41.5t40.5 51.5t20.5 78l83 588h59l-83 -595q-9 -61 -29.5 -99z" />
    <glyph glyph-name="K" unicode="K" horiz-adv-x="545" 
d="M74 0l96 685h59l-96 -685h-59zM508 0h-71l-248 367l327 318h72l-330 -320z" />
    <glyph glyph-name="L" unicode="L" horiz-adv-x="472" 
d="M426 54l-16 -54h-336l96 685h59l-88 -631h285z" />
    <glyph glyph-name="M" unicode="M" horiz-adv-x="776" 
d="M604 0l15 330q7 182 17 298l-249 -547h-57l-101 545q-10 -64 -64 -298l-76 -328h-57l161 685h79l96 -534l238 534h86l-31 -685h-57z" />
    <glyph glyph-name="N" unicode="N" horiz-adv-x="670" 
d="M446 0l-237 631q-1 -45 -6.5 -100t-18.5 -150l-54 -381h-56l96 685h77l237 -630q3 89 20 215l58 415h57l-97 -685h-76z" />
    <glyph glyph-name="O" unicode="O" horiz-adv-x="688" 
d="M577 625.5q63 -70.5 63 -201.5q0 -100 -33 -200t-107.5 -167.5t-190.5 -67.5q-110 0 -174 71t-64 202q0 97 34 197t109 168.5t190 68.5q110 0 173 -70.5zM245 583.5q-60 -61.5 -86 -150.5t-26 -177q0 -107 47 -161.5t130 -54.5q98 0 158 62t85 151.5t25 178.5
q0 106 -46 159.5t-131 53.5q-96 0 -156 -61.5z" />
    <glyph glyph-name="P" unicode="P" horiz-adv-x="567" 
d="M497 642q59 -43 59 -130q0 -105 -67.5 -175t-217.5 -70h-101l-37 -267h-59l96 685h158q110 0 169 -43zM444 371q50 55 50 141q0 66 -43 95t-127 29h-102l-45 -320h97q120 0 170 55z" />
    <glyph glyph-name="Q" unicode="Q" horiz-adv-x="678" 
d="M618.5 261q-21.5 -82 -70 -147.5t-123.5 -92.5q53 -2 99.5 -18.5t80.5 -47.5l-44 -48q-47 47 -102.5 64.5t-149.5 17.5q-110 0 -174 71t-64 202q0 97 34 197t109 168.5t190 68.5q110 0 173 -70.5t63 -201.5q0 -81 -21.5 -163zM180 94.5q47 -54.5 130 -54.5q98 0 158 62
t85 151.5t25 178.5q0 106 -46 159.5t-131 53.5q-96 0 -156 -61.5t-86 -150.5t-26 -177q0 -107 47 -161.5z" />
    <glyph glyph-name="R" unicode="R" horiz-adv-x="587" 
d="M510.5 397q-42.5 -58 -137.5 -81l144 -316h-66l-136 307h-139l-43 -307h-59l96 685h164q112 0 165.5 -39t53.5 -118q0 -73 -42.5 -131zM446.5 407.5q44.5 51.5 44.5 122.5q0 55 -37 80.5t-120 25.5h-112l-39 -280h118q101 0 145.5 51.5z" />
    <glyph glyph-name="S" unicode="S" horiz-adv-x="536" 
d="M429 676.5q45 -19.5 82 -57.5l-38 -36q-32 33 -67.5 47.5t-81.5 14.5q-70 0 -116 -35.5t-46 -92.5q0 -46 30.5 -74t107.5 -54q87 -27 131 -69t44 -116q0 -50 -26 -99.5t-83 -82.5t-145 -33q-68 0 -118.5 23t-89.5 65l39 36q33 -36 73.5 -54.5t96.5 -18.5q61 0 104.5 22.5
t65.5 59.5t22 80q0 51 -32 82.5t-108 57.5q-91 28 -131.5 68t-40.5 105q0 42 24.5 84t74.5 69.5t123 27.5q60 0 105 -19.5z" />
    <glyph glyph-name="T" unicode="T" horiz-adv-x="492" 
d="M328 632l-89 -632h-60l89 632h-202l8 53h468l-15 -53h-199z" />
    <glyph glyph-name="U" unicode="U" horiz-adv-x="649" 
d="M462 49.5q-65 -60.5 -173 -60.5q-98 0 -148 49.5t-50 133.5q0 22 3 44l66 469h59l-65 -468q-3 -22 -3 -43q0 -133 139 -133q85 0 132.5 47.5t59.5 132.5l66 464h60l-66 -473q-15 -102 -80 -162.5z" />
    <glyph glyph-name="V" unicode="V" horiz-adv-x="544" 
d="M201 0l-126 685h62l105 -623l282 623h62l-318 -685h-67z" />
    <glyph glyph-name="W" unicode="W" horiz-adv-x="807" 
d="M515 0l-62 618l-236 -618h-73l-54 685h59l41 -628l238 628h67l64 -629l220 629h57l-247 -685h-74z" />
    <glyph glyph-name="X" unicode="X" horiz-adv-x="509" 
d="M464 0h-65l-135 327l-225 -327h-66l259 369l1 1l-143 315h65l116 -275l196 275h66l-228 -314l-2 -2z" />
    <glyph glyph-name="Y" unicode="Y" horiz-adv-x="520" 
d="M254 0h-60l38 267l-159 418h63l131 -363l233 363h67l-275 -417z" />
    <glyph glyph-name="Z" unicode="Z" horiz-adv-x="513" 
d="M75 53h355l-15 -53h-417l7 50l445 583h-326l8 52h393l-6 -49z" />
    <glyph glyph-name="bracketleft" unicode="[" horiz-adv-x="314" 
d="M207 759l-116 -824h112l-7 -47h-165l129 919h166l-7 -48h-112z" />
    <glyph glyph-name="backslash" unicode="\" horiz-adv-x="517" 
d="M298 -100l-105 891l50 11l106 -890z" />
    <glyph glyph-name="bracketright" unicode="]" horiz-adv-x="315" 
d="M13 -112l6 47h112l117 824h-112l6 48h166l-129 -919h-166z" />
    <glyph glyph-name="asciicircum" unicode="^" horiz-adv-x="528" 
d="M445 527l-108 248l-178 -248h-66l227 305h48l141 -305h-64z" />
    <glyph glyph-name="underscore" unicode="_" horiz-adv-x="517" 
d="M443 -71l-7 -51h-462l8 51h461z" />
    <glyph glyph-name="grave" unicode="`" horiz-adv-x="272" 
d="M278 645l-183 85l33 52l172 -104z" />
    <glyph glyph-name="a" unicode="a" 
d="M414.5 523.5q38.5 -10.5 82.5 -32.5l-57 -377q-2 -24 -2 -31q0 -23 8 -34.5t25 -18.5l-17 -41q-35 7 -52.5 28.5t-17.5 66.5q-30 -44 -71.5 -69.5t-89.5 -25.5q-78 0 -121.5 54t-43.5 149q0 78 28 157t88.5 132t152.5 53q49 0 87.5 -10.5zM210 441q-47 -46 -69 -114
t-22 -135q0 -76 29.5 -115.5t84.5 -39.5q46 0 83.5 28.5t72.5 82.5l47 315q-50 24 -107 24q-72 0 -119 -46z" />
    <glyph glyph-name="b" unicode="b" horiz-adv-x="571" 
d="M355 534q76 0 117 -51t41 -147q0 -80 -27 -159.5t-87.5 -133.5t-155.5 -54q-43 0 -81 8t-90 26l101 713l58 7l-40 -286q74 77 164 77zM259 463.5q-37 -22.5 -77 -65.5l-47 -340q27 -11 52 -16t59 -5q73 0 120 48t67.5 117.5t20.5 137.5q0 146 -112 146q-46 0 -83 -22.5z
" />
    <glyph glyph-name="c" unicode="c" horiz-adv-x="467" 
d="M461 480l-33 -36q-22 21 -47.5 31t-59.5 10q-71 0 -116 -45t-65 -111t-20 -132q0 -78 35 -117.5t96 -39.5q36 0 66.5 11t62.5 33l25 -41q-71 -54 -155 -54q-90 0 -140 55t-50 156q0 76 27 153t85.5 129t147.5 52q86 0 141 -54z" />
    <glyph glyph-name="d" unicode="d" horiz-adv-x="583" 
d="M441 0h-50l7 106q-68 -117 -173 -117q-76 0 -118.5 55t-42.5 151q0 76 25 154t80 131.5t140 53.5q90 0 139 -72l40 281l57 -7zM206.5 439.5q-43.5 -46.5 -62.5 -114t-19 -133.5q0 -76 28.5 -115.5t80.5 -39.5q54 0 93.5 36t81.5 108l32 228q-21 36 -50.5 56.5t-73.5 20.5
q-67 0 -110.5 -46.5z" />
    <glyph glyph-name="e" unicode="e" horiz-adv-x="520" 
d="M386.5 266q-94.5 -47 -266.5 -60l-1 -6q0 -82 36 -121.5t98 -39.5q41 0 75.5 13t72.5 40l26 -41q-42 -31 -85.5 -46.5t-92.5 -15.5q-90 0 -140 55t-50 155q0 79 28 156t87.5 128t147.5 51q74 0 116.5 -35.5t42.5 -90.5q0 -95 -94.5 -142zM183.5 416.5
q-49.5 -69.5 -60.5 -165.5q150 12 224 49t74 106q0 34 -25 57t-75 23q-88 0 -137.5 -69.5z" />
    <glyph glyph-name="f" unicode="f" horiz-adv-x="319" 
d="M216 606l-11 -83h137l-13 -47h-131l-64 -459q-9 -68 -29 -108t-51.5 -64t-87.5 -49l-17 45q41 19 65 37.5t39.5 51.5t23.5 89l64 457h-91l7 47h91l12 87q8 62 51 97.5t110 35.5q33 0 60.5 -8.5t57.5 -26.5l-23 -40q-25 15 -47 21t-47 6q-93 0 -106 -89z" />
    <glyph glyph-name="g" unicode="g" horiz-adv-x="565" 
d="M415.5 523.5q38.5 -10.5 81.5 -32.5l-71 -487q-31 -211 -219 -211q-90 0 -173 49l23 44q78 -43 148 -43q142 0 164 160l12 87q-30 -42 -70.5 -66t-86.5 -24q-79 0 -122.5 54.5t-43.5 147.5q0 78 28.5 154t89 127t152.5 51q49 0 87.5 -10.5zM210.5 443.5
q-47.5 -43.5 -69.5 -109t-22 -132.5q0 -74 29.5 -113.5t83.5 -40.5q47 0 85.5 28.5t73.5 81.5l46 305q-50 24 -108 24q-71 0 -118.5 -43.5z" />
    <glyph glyph-name="h" unicode="h" horiz-adv-x="581" 
d="M467.5 501.5q31.5 -32.5 31.5 -92.5q0 -17 -3 -37l-52 -372h-58l52 367q3 21 3 36q0 44 -20.5 63t-61.5 19q-52 0 -99.5 -46.5t-89.5 -125.5l-44 -313h-57l104 736l58 7l-50 -348q37 65 88 102t107 37q60 0 91.5 -32.5z" />
    <glyph glyph-name="i" unicode="i" horiz-adv-x="269" 
d="M69 0l74 523h58l-74 -523h-58zM229.5 742.5q10.5 -10.5 10.5 -27.5q0 -19 -12.5 -32t-33.5 -14q-18 1 -29 11.5t-11 27.5q0 20 13 32.5t33 12.5q19 0 29.5 -10.5z" />
    <glyph glyph-name="j" unicode="j" horiz-adv-x="267" 
d="M98 -91q-20 -40 -51.5 -64t-87.5 -49l-17 44q41 19 65 38t39.5 52t23.5 89l71 504h58l-72 -506q-9 -68 -29 -108zM227.5 742.5q10.5 -10.5 10.5 -27.5q0 -19 -12.5 -32t-33.5 -14q-18 1 -29 11.5t-11 27.5q0 20 13 32.5t33 12.5q19 0 29.5 -10.5z" />
    <glyph glyph-name="k" unicode="k" horiz-adv-x="522" 
d="M272.5 500q49.5 34 104.5 34q53 0 86.5 -30t33.5 -80q0 -65 -44 -113t-129 -75l119 -236h-64l-125 254q92 26 137 66t45 97q0 33 -18 51.5t-54 18.5q-54 0 -104.5 -47.5t-90.5 -134.5l-43 -305h-57l104 736l58 7l-49 -348q41 71 90.5 105z" />
    <glyph glyph-name="l" unicode="l" horiz-adv-x="281" 
d="M132 73q0 -18 8 -26.5t26 -8.5q17 0 38 8l13 -43q-31 -14 -61 -14q-39 0 -60 20.5t-21 61.5q0 8 2 26l90 639l58 7l-92 -655q-1 -5 -1 -15z" />
    <glyph glyph-name="m" unicode="m" horiz-adv-x="849" 
d="M737.5 501q29.5 -33 29.5 -92q0 -20 -4 -37l-52 -372h-58l52 367q3 14 3 36q0 82 -68 82q-47 0 -90.5 -45.5t-86.5 -124.5l-45 -315h-57l52 367q3 21 3 36q0 82 -69 82q-47 0 -90.5 -46t-86.5 -126l-44 -313h-57l74 523h48l-13 -129q82 140 185 140q51 0 81 -34t29 -95
q83 129 183 129q52 0 81.5 -33z" />
    <glyph glyph-name="n" unicode="n" horiz-adv-x="581" 
d="M467.5 501.5q31.5 -32.5 31.5 -92.5q0 -17 -3 -37l-52 -372h-58l52 367q3 21 3 36q0 44 -20.5 63t-61.5 19q-51 0 -99.5 -47t-89.5 -125l-44 -313h-57l74 523h48l-13 -130q40 66 91.5 103.5t106.5 37.5q60 0 91.5 -32.5z" />
    <glyph glyph-name="o" unicode="o" horiz-adv-x="569" 
d="M460.5 479q49.5 -55 49.5 -155q0 -74 -26 -151t-84.5 -130.5t-150.5 -53.5q-91 0 -140.5 56t-49.5 156q0 75 26.5 151.5t85 129t150.5 52.5q90 0 139.5 -55zM202 439.5q-45 -46.5 -64 -113.5t-19 -130q0 -78 33.5 -118t97.5 -40q71 0 115.5 46t64 113t19.5 131
q0 78 -33.5 118t-96.5 40q-72 0 -117 -46.5z" />
    <glyph glyph-name="p" unicode="p" horiz-adv-x="578" 
d="M472 483q41 -51 41 -147q0 -80 -26.5 -159.5t-87 -133.5t-155.5 -54q-60 0 -117 20l-28 -208l-59 -8l103 730h49l-6 -72q39 42 80.5 62.5t88.5 20.5q76 0 117 -51zM258.5 463.5q-37.5 -22.5 -76.5 -65.5l-47 -340q27 -11 52 -16t59 -5q73 0 120 48t67.5 117.5t20.5 137.5
q0 146 -112 146q-46 0 -83.5 -22.5z" />
    <glyph glyph-name="q" unicode="q" horiz-adv-x="566" 
d="M414.5 523.5q38.5 -10.5 82.5 -32.5l-96 -691l-58 -7l40 286q-28 -41 -70 -65.5t-90 -24.5q-78 0 -121.5 54t-43.5 149q0 78 28 157t88.5 132t152.5 53q49 0 87.5 -10.5zM210 441q-47 -46 -69 -114t-22 -135q0 -76 29.5 -115.5t84.5 -39.5q46 0 84.5 28.5t73.5 82.5
l45 315q-50 24 -107 24q-72 0 -119 -46z" />
    <glyph glyph-name="r" unicode="r" horiz-adv-x="371" 
d="M395 527l-16 -54q-18 5 -42 5q-54 0 -94 -45.5t-74 -134.5l-43 -298h-57l74 523h49l-14 -127q30 67 72 102.5t95 35.5q29 0 50 -7z" />
    <glyph glyph-name="s" unicode="s" horiz-adv-x="461" 
d="M421 475l-32 -38q-55 49 -127 49q-58 0 -92 -24t-34 -65q0 -34 25 -55.5t89 -40.5q78 -24 112.5 -59.5t34.5 -94.5q0 -71 -55 -114.5t-148 -43.5q-61 0 -105.5 19t-79.5 52l36 37q62 -59 149 -59q68 0 105.5 29t37.5 77q0 41 -25.5 65t-94.5 46q-77 25 -108.5 57.5
t-31.5 82.5q0 37 22.5 69t64.5 51t98 19q91 0 159 -59z" />
    <glyph glyph-name="t" unicode="t" horiz-adv-x="339" 
d="M142 102q0 -32 15 -47.5t48 -15.5q37 0 84 25l20 -43q-56 -32 -113 -32q-53 0 -82.5 28.5t-29.5 81.5q0 9 2 29l49 348h-88l7 47h89l29 127l46 5l-19 -132h134l-13 -47h-127l-49 -347q-2 -20 -2 -27z" />
    <glyph glyph-name="u" unicode="u" horiz-adv-x="577" 
d="M385 0l14 133q-36 -67 -84.5 -105.5t-108.5 -38.5q-59 0 -91.5 33t-32.5 94q0 11 2 35l53 372h57l-52 -370q-2 -24 -2 -34q0 -43 19.5 -62.5t57.5 -19.5q102 0 188 166l44 320h58l-74 -523h-48z" />
    <glyph glyph-name="v" unicode="v" horiz-adv-x="467" 
d="M164 0l-112 523h63l91 -471l219 471h64l-254 -523h-71z" />
    <glyph glyph-name="w" unicode="w" horiz-adv-x="696" 
d="M429 0l-49 469l-183 -469h-77l-57 523h57l45 -478l188 478h68l51 -479l178 479h57l-200 -523h-78z" />
    <glyph glyph-name="x" unicode="x" horiz-adv-x="456" 
d="M408 0h-65l-118 242l-186 -242h-66l223 281l-125 242h64l100 -208l159 208h66l-195 -247z" />
    <glyph glyph-name="y" unicode="y" horiz-adv-x="465" 
d="M142 -140q-53 -46 -147 -64l-3 45q53 13 85.5 32.5t54.5 48t48 79.5l-21 -1l-107 523h61l90 -479l223 479h61l-249 -527q-43 -90 -96 -136z" />
    <glyph glyph-name="z" unicode="z" horiz-adv-x="419" 
d="M70 50h284l-13 -50h-351l7 45l347 428h-263l7 50h335l-6 -45z" />
    <glyph glyph-name="braceleft" unicode="{" horiz-adv-x="323" 
d="M264.5 764.5q-23.5 -19.5 -29.5 -61.5l-36 -253q-6 -50 -26 -71t-62 -31q32 -8 47.5 -24t15.5 -50q0 -13 -3 -28l-36 -254q-1 -7 -1 -20q0 -30 17.5 -43.5t58.5 -13.5l-4 -44q-60 -1 -92.5 24.5t-32.5 76.5q0 17 1 26l36 255q2 14 2 19q0 28 -16.5 40t-52.5 12l6 50
q39 0 61 18t28 58l36 255q9 66 46 94.5t110 28.5l-3 -44q-47 0 -70.5 -19.5z" />
    <glyph glyph-name="bar" unicode="|" horiz-adv-x="404" 
d="M125 -100l126 904h54l-126 -904h-54z" />
    <glyph glyph-name="braceright" unicode="}" horiz-adv-x="323" 
d="M83.5 -65.5q23.5 19.5 29.5 61.5l35 253q7 50 27 71t62 31q-32 9 -47 25t-15 50q0 17 2 27l36 254q2 14 2 20q0 30 -18 43.5t-59 13.5l3 44q61 1 94 -24.5t33 -76.5q0 -8 -2 -26l-36 -255q-2 -12 -2 -18q0 -29 16.5 -41t52.5 -12l-7 -50q-77 0 -88 -76l-36 -255
q-10 -66 -46.5 -94.5t-109.5 -28.5l3 44q47 0 70.5 19.5z" />
    <glyph glyph-name="asciitilde" unicode="~" horiz-adv-x="469" 
d="M218 362.5q19 -8.5 44 -25.5q21 -13 32 -18.5t23 -5.5q23 0 39 11.5t36 35.5l37 -24q-26 -34 -52.5 -53t-62.5 -19q-25 0 -45 9t-44 25q-18 12 -30 18t-25 6q-24 0 -40.5 -12t-37.5 -37l-36 23q26 35 53 55t65 20q25 0 44 -8.5z" />
    <glyph glyph-name="nonbreakingspace" unicode="&#xa0;" horiz-adv-x="277" 
 />
    <glyph glyph-name="exclamdown" unicode="&#xa1;" horiz-adv-x="238" 
d="M180 462.5q12 -12.5 12 -31.5q0 -22 -14.5 -36.5t-36.5 -14.5q-19 0 -31.5 12.5t-12.5 30.5q0 22 15 37t36 15q20 0 32 -12.5zM27 -197l67 446h53l-59 -446h-61z" />
    <glyph glyph-name="cent" unicode="&#xa2;" horiz-adv-x="467" 
d="M205 440q-45 -45 -65 -111t-20 -132q0 -78 35 -117.5t96 -39.5q36 0 66.5 11t62.5 33l25 -41q-68 -51 -146 -54l-20 -139h-51l20 142q-71 13 -109.5 66.5t-38.5 141.5q0 70 23.5 142.5t74.5 126t128 63.5l20 148h50l-21 -146q75 -5 126 -54l-33 -36q-22 21 -47.5 31
t-59.5 10q-71 0 -116 -45z" />
    <glyph glyph-name="sterling" unicode="&#xa3;" horiz-adv-x="511" 
d="M448 657q37 -19 64 -58l-40 -28q-22 29 -47.5 42.5t-63.5 13.5q-57 0 -93 -35t-44 -94l-18 -124h213l-6 -43h-212l-23 -162q-7 -49 -25 -74t-57 -45l326 1l-15 -51h-393l5 49q52 22 73.5 47t28.5 76l22 159h-65l6 43h65l18 127q11 78 61 126.5t131 48.5q52 0 89 -19z" />
    <glyph glyph-name="currency" unicode="&#xa4;" 
d="M432 215l79 -77l-36 -36l-80 78q-46 -34 -115 -34q-66 0 -115 36l-80 -80l-36 36l80 79q-39 53 -39 124t39 122l-80 80l36 36l80 -80q49 36 115 36q67 0 116 -35l79 79l36 -36l-78 -78q40 -51 40 -124q0 -72 -41 -126zM381.5 233q34.5 40 34.5 108t-34.5 108t-100.5 40
q-65 0 -100.5 -40t-35.5 -108t35.5 -108t100.5 -40q66 0 100.5 40z" />
    <glyph glyph-name="yen" unicode="&#xa5;" horiz-adv-x="509" 
d="M430 338l-6 -43h-134l-15 -103h134l-5 -43h-135l-21 -149h-59l21 149h-135l6 43h135l15 103h-135l6 43h116l-148 327h65l133 -313l222 313h63l-238 -327h115z" />
    <glyph glyph-name="brokenbar" unicode="&#xa6;" horiz-adv-x="404" 
d="M213 146h-54l51 362l7 50h54l-51 -361z" />
    <glyph glyph-name="section" unicode="&#xa7;" horiz-adv-x="530" 
d="M234 601q-30 -27 -30 -64q0 -33 24.5 -54.5t88.5 -45.5q69 -24 101.5 -57.5t32.5 -81.5q0 -42 -23 -73.5t-76 -61.5q45 -36 45 -92q0 -62 -50.5 -100.5t-138.5 -38.5q-47 0 -85 12t-74 35l28 41q57 -40 134 -40q68 0 98 26.5t30 64.5q0 34 -23 54.5t-87 44.5
q-71 24 -105.5 57t-34.5 82q0 42 25 75t77 63q-44 35 -44 88q0 66 52.5 103t129.5 37q48 0 84 -13t70 -37l-28 -38q-32 21 -61.5 31t-66.5 10q-63 0 -93 -27zM373 349q-22 24 -79 45q-40 14 -68 30q-43 -28 -61 -54t-18 -59q0 -31 23 -53.5t79 -44.5q43 -15 68 -28
q44 28 61 54.5t17 55.5q0 30 -22 54z" />
    <glyph glyph-name="dieresis" unicode="&#xa8;" horiz-adv-x="327" 
d="M159.5 731.5q10.5 -10.5 10.5 -25.5q0 -18 -12 -30.5t-30 -12.5q-17 0 -27 10.5t-10 25.5q0 18 12 30.5t30 12.5q16 0 26.5 -10.5zM348 731.5q10 -10.5 10 -25.5q0 -18 -12 -30.5t-30 -12.5q-16 0 -26.5 10.5t-10.5 25.5q0 18 12 30.5t30 12.5q17 0 27 -10.5z" />
    <glyph glyph-name="copyright" unicode="&#xa9;" horiz-adv-x="810" 
d="M555 696.5q68 -39.5 107.5 -108t39.5 -153.5t-39.5 -153.5t-107.5 -108t-150 -39.5q-83 0 -150.5 39t-107 108t-39.5 154q0 84 39.5 153t107.5 108.5t150 39.5t150 -39.5zM276.5 663q-57.5 -34 -90.5 -94t-33 -134q0 -75 32.5 -134.5t90.5 -93.5t130 -34q71 0 128.5 34
t90 94t32.5 134q0 75 -32.5 134.5t-89.5 93.5t-129 34t-129.5 -34zM462 607.5q24 -8.5 47 -26.5l-25 -33q-17 13 -34.5 19t-40.5 6q-41 0 -70 -32.5t-29 -104.5q0 -68 27 -103t72 -35q25 0 44.5 7.5t39.5 21.5l22 -33q-48 -40 -108 -40q-66 0 -107 49t-41 133q0 58 21 99
t54.5 61t72.5 20q31 0 55 -8.5z" />
    <glyph glyph-name="ordfeminine" unicode="&#xaa;" horiz-adv-x="497" 
d="M429 585q0 -8 -2 -28l-25 -184q-2 -16 -2 -22q0 -27 25 -38l-15 -39q-28 6 -42.5 19.5t-18.5 43.5q-52 -63 -135 -63q-55 0 -86.5 30.5t-31.5 78.5q0 61 49 99.5t144 38.5h77l4 33q2 11 2 25q0 32 -18.5 46t-61.5 14q-47 0 -116 -23l-12 43q75 26 136 26q129 0 129 -100z
M187 453q-32 -28 -32 -68q0 -30 18 -48t51 -18q74 0 123 68l13 94h-66q-75 0 -107 -28zM400 51l-7 -51h-353l7 51h353z" />
    <glyph glyph-name="guillemotleft" unicode="&#xab;" horiz-adv-x="553" 
d="M136 288l107 -208l-37 -24l-134 212l4 39l191 213l35 -25zM349 288l107 -208l-37 -24l-134 212l4 39l191 213l35 -25z" />
    <glyph glyph-name="logicalnot" unicode="&#xac;" horiz-adv-x="497" 
d="M360 168l18 128h-305l8 51h359l-26 -179h-54z" />
    <glyph glyph-name="softhyphen" unicode="&#xad;" horiz-adv-x="398" 
d="M341 338l-7 -50h-263l7 50h263z" />
    <glyph glyph-name="registered" unicode="&#xae;" horiz-adv-x="639" 
d="M441 705.5q55 -31.5 87 -86.5t32 -122q0 -66 -32 -121t-87 -87t-122 -32q-66 0 -121 31.5t-86.5 86t-31.5 120.5t32 121.5t86.5 88t120.5 32.5q67 0 122 -31.5zM421 320q46 27 72.5 74t26.5 103q0 57 -26 103.5t-72 73t-103 26.5q-55 0 -100.5 -27.5t-72 -74.5
t-26.5 -103q0 -57 26.5 -103t72 -72.5t100.5 -26.5q56 0 102 27zM355 482l74 -118h-50l-65 111h-36v-111h-42v272h69q114 0 114 -81q0 -56 -64 -73zM317 510q59 0 59 45q0 25 -16 35.5t-49 10.5h-33v-91h39z" />
    <glyph glyph-name="macron" unicode="&#xaf;" horiz-adv-x="298" 
d="M94 723h240l-7 -47h-240z" />
    <glyph glyph-name="degree" unicode="&#xb0;" horiz-adv-x="518" 
d="M145.5 431q-38.5 35 -38.5 94q0 51 24.5 90t63.5 60t81 21q57 0 95 -35t38 -93q0 -51 -24 -90.5t-62.5 -60.5t-82.5 -22q-56 1 -94.5 36zM324.5 475q34.5 36 34.5 94q0 39 -22 61.5t-60 22.5q-43 0 -77 -30t-41 -80q-1 -7 -1 -19q0 -40 23 -62.5t59 -22.5q50 0 84.5 36z
" />
    <glyph glyph-name="plusminus" unicode="&#xb1;" horiz-adv-x="491" 
d="M393 51l-7 -51h-353l7 51h353zM436 366l-7 -50h-149l-22 -152h-55l22 152h-149l7 50h149l22 152h55l-22 -152h149z" />
    <glyph glyph-name="twosuperior" unicode="&#xb2;" horiz-adv-x="397" 
d="M306 713.5q30 -28.5 30 -73.5q0 -11 -1 -17q-5 -38 -26.5 -70.5t-62.5 -71.5t-133 -117l196 1l-13 -43h-251l5 42q105 92 146 130.5t61.5 68.5t24.5 63q1 4 1 13q0 28 -17 44t-47 16q-55 0 -100 -47l-33 29q31 31 64.5 46t71.5 15q54 0 84 -28.5z" />
    <glyph glyph-name="threesuperior" unicode="&#xb3;" horiz-adv-x="397" 
d="M309 718q31 -26 31 -67q0 -5 -2 -15q-5 -38 -31.5 -62.5t-67.5 -32.5q37 -2 60.5 -24t23.5 -62q0 -61 -44 -101t-115 -40q-79 0 -123 58l34 25q19 -22 40 -31.5t47 -9.5q51 1 80.5 29.5t29.5 74.5q0 60 -80 60h-32l12 39h19q35 0 63 20.5t33 58.5q1 4 1 11q0 25 -17.5 39
t-48.5 14q-27 0 -50.5 -9t-50.5 -30l-25 33q31 24 61.5 35.5t67.5 11.5q53 1 84 -25z" />
    <glyph glyph-name="acute" unicode="&#xb4;" horiz-adv-x="273" 
d="M102 645l-14 34l201 103l19 -52z" />
    <glyph glyph-name="uni00B5" unicode="&#xb5;" horiz-adv-x="582" 
d="M451 86q0 -48 9 -90l-53 -4q-12 47 -12 82l1 26q-36 -51 -78.5 -81t-95.5 -30q-74 0 -99 52q3 -43 -9 -123l-16 -115l-58 -6l103 726h57l-53 -375q-2 -18 -2 -26q0 -43 22.5 -62.5t60.5 -19.5q95 0 170 119l51 364h57l-49 -348q-6 -51 -6 -89z" />
    <glyph glyph-name="paragraph" unicode="&#xb6;" horiz-adv-x="706" 
d="M490 -197l-56 -9l118 842h-127l-117 -833l-55 -9l70 500q-99 4 -146 48t-47 115q0 12 2 36q13 92 80 141.5t176 49.5v-3l1 3l224 1z" />
    <glyph glyph-name="periodcentered" unicode="&#xb7;" horiz-adv-x="207" 
d="M146.5 354.5q11.5 -12.5 11.5 -31.5q0 -22 -14.5 -37t-36.5 -15q-19 0 -31 13t-12 31q0 22 14.5 37t36.5 15q20 0 31.5 -12.5z" />
    <glyph glyph-name="cedilla" unicode="&#xb8;" horiz-adv-x="243" 
d="M158 -133q0 -39 -32 -66.5t-83 -27.5q-46 0 -79 22l22 35q23 -15 56 -15q26 -1 45.5 12.5t19.5 36.5q0 21 -18.5 30.5t-64.5 9.5l25 112h39l-13 -80q83 -7 83 -69z" />
    <glyph glyph-name="onesuperior" unicode="&#xb9;" horiz-adv-x="397" 
d="M177 322l50 359l-109 -60l-19 36l143 79h44l-59 -414h-50z" />
    <glyph glyph-name="ordmasculine" unicode="&#xba;" horiz-adv-x="497" 
d="M420.5 642.5q41.5 -42.5 41.5 -120.5q0 -58 -21 -115t-68 -95t-120 -38q-75 0 -116.5 43t-41.5 121q0 57 21 113.5t68 95t120 38.5q75 0 116.5 -42.5zM216 607q-34 -32 -48 -78.5t-14 -94.5q0 -56 25.5 -85t73.5 -29q55 0 88.5 33t47.5 80.5t14 93.5q0 56 -25.5 84
t-73.5 28q-54 0 -88 -32zM397 50l-7 -50h-354l7 50h354z" />
    <glyph glyph-name="guillemotright" unicode="&#xbb;" horiz-adv-x="543" 
d="M270 268l-191 -212l-34 24l165 208l-107 207l37 25l134 -213zM473 268l-191 -212l-34 24l165 208l-107 207l37 25l134 -213z" />
    <glyph glyph-name="onequarter" unicode="&#xbc;" horiz-adv-x="906" 
d="M171 272l50 359l-109 -60l-20 36l144 78h44l-59 -413h-50zM224 -71l-38 20l517 798l38 -19zM776 103l-15 -103h-50l15 103h-187l4 37l169 281l41 -17l-155 -259h134l22 115h44l-16 -115h55l-6 -42h-55z" />
    <glyph glyph-name="onehalf" unicode="&#xbd;" horiz-adv-x="906" 
d="M171 272l50 359l-109 -60l-20 36l144 78h44l-59 -413h-50zM224 -71l-38 20l517 798l38 -19zM807 391.5q30 -28.5 30 -73.5q0 -11 -1 -17q-5 -38 -26.5 -70.5t-62.5 -71.5t-133 -117l196 1l-13 -43h-251l5 42q105 92 146 130.5t61.5 68.5t24.5 63q1 4 1 13q0 28 -17 44
t-47 16q-55 0 -100 -47l-33 29q31 31 64.5 46t71.5 15q54 0 84 -28.5z" />
    <glyph glyph-name="threequarters" unicode="&#xbe;" horiz-adv-x="906" 
d="M302.5 667q30.5 -26 30.5 -67q0 -44 -27.5 -72t-72.5 -37q36 -2 60 -24.5t24 -61.5q0 -61 -44 -101t-115 -40q-78 0 -124 57l35 26q19 -22 40 -31.5t47 -9.5q51 0 80 28.5t29 74.5q0 32 -20.5 46t-59.5 14h-31l12 40h19q35 0 62.5 20t33.5 58l1 12q0 25 -18 39t-48 14
q-28 0 -51 -9t-50 -30l-25 32q31 25 61.5 36.5t67.5 11.5q53 0 83.5 -26zM224 -71l-38 20l517 798l38 -19zM776 103l-15 -103h-50l15 103h-187l4 37l169 281l41 -17l-155 -259h134l22 115h44l-16 -115h55l-6 -42h-55z" />
    <glyph glyph-name="questiondown" unicode="&#xbf;" horiz-adv-x="445" 
d="M222 422.5q-12 12.5 -12 31.5q0 22 15 37t37 15q19 0 31 -13t12 -31q0 -22 -14.5 -37t-36.5 -15q-20 0 -32 12.5zM35 -170.5q-40 36.5 -40 92.5q0 45 18 77t43.5 52t68.5 45q36 22 56 37.5t34 37.5t14 51q0 19 -5 41l52 10q10 -28 10 -54q0 -39 -16.5 -67.5t-40 -47
t-63.5 -42.5q-37 -22 -59 -39t-37.5 -42t-15.5 -58q0 -38 26.5 -59.5t72.5 -21.5q45 0 83.5 19t78.5 58l36 -35q-47 -47 -96 -69t-106 -22q-74 0 -114 36.5z" />
    <glyph glyph-name="Agrave" unicode="&#xc0;" horiz-adv-x="562" 
d="M127 187l-87 -187h-61l324 685h75l131 -685h-62l-33 187h-287zM334 636l-184 -398h255zM443 758l-187 78l33 52l174 -96z" />
    <glyph glyph-name="Aacute" unicode="&#xc1;" horiz-adv-x="562" 
d="M127 187l-87 -187h-61l324 685h75l131 -685h-62l-33 187h-287zM334 636l-184 -398h255zM261 758l-11 34l199 96l20 -52z" />
    <glyph glyph-name="Acircumflex" unicode="&#xc2;" horiz-adv-x="562" 
d="M127 187l-87 -187h-61l324 685h75l131 -685h-62l-33 187h-287zM334 636l-184 -398h255zM238 762l-25 30l143 102h36l115 -102l-27 -30l-111 80z" />
    <glyph glyph-name="Atilde" unicode="&#xc3;" horiz-adv-x="562" 
d="M127 187l-87 -187h-61l324 685h75l131 -685h-62l-33 187h-287zM334 636l-184 -398h255zM383 800q-16 7 -34 20q-15 10 -23.5 14t-18.5 4q-20 0 -33 -9t-31 -32l-33 21q45 66 98 66q17 0 30.5 -6t31.5 -18q14 -10 25 -15.5t23 -5.5q16 0 30.5 10.5t32.5 34.5l34 -22
q-44 -69 -94 -69q-22 0 -38 7z" />
    <glyph glyph-name="Adieresis" unicode="&#xc4;" horiz-adv-x="562" 
d="M127 187l-87 -187h-61l324 685h75l131 -685h-62l-33 187h-287zM334 636l-184 -398h255zM296 857.5q10 -10.5 10 -25.5q0 -19 -11.5 -31t-30.5 -12q-16 0 -26.5 10.5t-10.5 25.5q0 19 12.5 31t30.5 12q16 0 26 -10.5zM484.5 857.5q10.5 -10.5 10.5 -25.5q0 -18 -12 -30.5
t-30 -12.5q-16 0 -26.5 10.5t-10.5 25.5q0 19 12 31t30 12q16 0 26.5 -10.5z" />
    <glyph glyph-name="Aring" unicode="&#xc5;" horiz-adv-x="562" 
d="M127 187l-87 -187h-61l324 685h75l131 -685h-62l-33 187h-287zM334 636l-184 -398h255zM439 924q24 -23 24 -60q0 -46 -31 -75.5t-78 -29.5q-40 0 -64.5 23.5t-24.5 59.5q0 45 31.5 75t78.5 30q40 0 64 -23zM330.5 895q-16.5 -16 -21.5 -45v-10q0 -21 12.5 -33t34.5 -12
q26 0 42 16t21 45q1 4 1 12q0 20 -12.5 31.5t-34.5 11.5q-26 0 -42.5 -16z" />
    <glyph glyph-name="AE" unicode="&#xc6;" horiz-adv-x="780" 
d="M439 379h257l-7 -49h-245l33 -280h228l-8 -50h-272l-20 184h-284l-95 -184h-63l362 685h421l-14 -50h-323zM356 637l-209 -403h252z" />
    <glyph glyph-name="Ccedilla" unicode="&#xc7;" horiz-adv-x="548" 
d="M248 585.5q-61 -59.5 -88 -148t-27 -177.5q0 -109 48 -163.5t128 -54.5q49 0 84.5 15t75.5 44l28 -43q-85 -69 -192 -69h-1l-9 -53q83 -6 83 -69q0 -39 -32 -66.5t-83 -27.5q-48 0 -78 23l22 34q22 -15 55 -15q26 -1 45.5 12.5t19.5 36.5q0 21 -18 30.5t-64 10.5l19 87
q-89 14 -141 84t-52 187q0 100 34.5 199.5t108.5 166.5t185 67q55 0 95 -16t75 -48l-37 -38q-30 27 -60 39t-69 12q-94 0 -155 -59.5z" />
    <glyph glyph-name="Egrave" unicode="&#xc8;" horiz-adv-x="509" 
d="M222 635l-36 -255h242l-6 -50h-242l-39 -280h293l-8 -50h-352l96 685h346l-14 -50h-280zM450 758l-187 78l33 52l174 -96z" />
    <glyph glyph-name="Eacute" unicode="&#xc9;" horiz-adv-x="509" 
d="M222 635l-36 -255h242l-6 -50h-242l-39 -280h293l-8 -50h-352l96 685h346l-14 -50h-280zM268 758l-11 34l199 96l20 -52z" />
    <glyph glyph-name="Ecircumflex" unicode="&#xca;" horiz-adv-x="509" 
d="M222 635l-36 -255h242l-6 -50h-242l-39 -280h293l-8 -50h-352l96 685h346l-14 -50h-280zM245 762l-25 30l143 102h36l115 -102l-27 -30l-111 80z" />
    <glyph glyph-name="Edieresis" unicode="&#xcb;" horiz-adv-x="509" 
d="M222 635l-36 -255h242l-6 -50h-242l-39 -280h293l-8 -50h-352l96 685h346l-14 -50h-280zM302 857.5q10 -10.5 10 -25.5q0 -19 -11.5 -31t-30.5 -12q-16 0 -26.5 10.5t-10.5 25.5q0 19 12.5 31t30.5 12q16 0 26 -10.5zM490.5 857.5q10.5 -10.5 10.5 -25.5q0 -18 -12 -30.5
t-30 -12.5q-16 0 -26.5 10.5t-10.5 25.5q0 19 12 31t30 12q16 0 26.5 -10.5z" />
    <glyph glyph-name="Igrave" unicode="&#xcc;" horiz-adv-x="281" 
d="M74 0l96 685h60l-96 -685h-60zM303 758l-187 78l33 52l174 -96z" />
    <glyph glyph-name="Iacute" unicode="&#xcd;" horiz-adv-x="281" 
d="M74 0l96 685h60l-96 -685h-60zM121 758l-11 34l199 96l20 -52z" />
    <glyph glyph-name="Icircumflex" unicode="&#xce;" horiz-adv-x="281" 
d="M74 0l96 685h60l-96 -685h-60zM98 762l-25 30l143 102h36l115 -102l-27 -30l-111 80z" />
    <glyph glyph-name="Idieresis" unicode="&#xcf;" horiz-adv-x="281" 
d="M74 0l96 685h60l-96 -685h-60zM155 857.5q10 -10.5 10 -25.5q0 -19 -11.5 -31t-30.5 -12q-16 0 -26.5 10.5t-10.5 25.5q0 19 12.5 31t30.5 12q16 0 26 -10.5zM343.5 857.5q10.5 -10.5 10.5 -25.5q0 -18 -12 -30.5t-30 -12.5q-16 0 -26.5 10.5t-10.5 25.5q0 19 12 31
t30 12q16 0 26.5 -10.5z" />
    <glyph glyph-name="Eth" unicode="&#xd0;" horiz-adv-x="629" 
d="M505 629.5q76 -55.5 76 -201.5q0 -114 -36.5 -211t-117 -157t-206.5 -60h-148l46 330h-86l6 46h87l44 309h134q125 0 201 -55.5zM399 105q65 55 93.5 141t28.5 184q0 121 -58.5 163t-155.5 42h-85l-36 -259h178l-7 -46h-178l-38 -280h89q104 0 169 55z" />
    <glyph glyph-name="Ntilde" unicode="&#xd1;" horiz-adv-x="670" 
d="M446 0l-237 631q-1 -45 -6.5 -100t-18.5 -150l-54 -381h-56l96 685h77l237 -630q3 89 20 215l58 415h57l-97 -685h-76zM446 800q-16 7 -34 20q-15 10 -23.5 14t-18.5 4q-20 0 -33 -9t-31 -32l-33 21q45 66 98 66q17 0 30.5 -6t31.5 -18q14 -10 25 -15.5t23 -5.5
q16 0 30.5 10.5t32.5 34.5l34 -22q-44 -69 -94 -69q-22 0 -38 7z" />
    <glyph glyph-name="Ograve" unicode="&#xd2;" horiz-adv-x="688" 
d="M577 625.5q63 -70.5 63 -201.5q0 -100 -33 -200t-107.5 -167.5t-190.5 -67.5q-110 0 -174 71t-64 202q0 97 34 197t109 168.5t190 68.5q110 0 173 -70.5zM245 583.5q-60 -61.5 -86 -150.5t-26 -177q0 -107 47 -161.5t130 -54.5q98 0 158 62t85 151.5t25 178.5
q0 106 -46 159.5t-131 53.5q-96 0 -156 -61.5zM500 758l-187 78l33 52l174 -96z" />
    <glyph glyph-name="Oacute" unicode="&#xd3;" horiz-adv-x="688" 
d="M577 625.5q63 -70.5 63 -201.5q0 -100 -33 -200t-107.5 -167.5t-190.5 -67.5q-110 0 -174 71t-64 202q0 97 34 197t109 168.5t190 68.5q110 0 173 -70.5zM245 583.5q-60 -61.5 -86 -150.5t-26 -177q0 -107 47 -161.5t130 -54.5q98 0 158 62t85 151.5t25 178.5
q0 106 -46 159.5t-131 53.5q-96 0 -156 -61.5zM318 758l-11 34l199 96l20 -52z" />
    <glyph glyph-name="Ocircumflex" unicode="&#xd4;" horiz-adv-x="688" 
d="M577 625.5q63 -70.5 63 -201.5q0 -100 -33 -200t-107.5 -167.5t-190.5 -67.5q-110 0 -174 71t-64 202q0 97 34 197t109 168.5t190 68.5q110 0 173 -70.5zM245 583.5q-60 -61.5 -86 -150.5t-26 -177q0 -107 47 -161.5t130 -54.5q98 0 158 62t85 151.5t25 178.5
q0 106 -46 159.5t-131 53.5q-96 0 -156 -61.5zM295 762l-25 30l143 102h36l115 -102l-27 -30l-111 80z" />
    <glyph glyph-name="Otilde" unicode="&#xd5;" horiz-adv-x="688" 
d="M577 625.5q63 -70.5 63 -201.5q0 -100 -33 -200t-107.5 -167.5t-190.5 -67.5q-110 0 -174 71t-64 202q0 97 34 197t109 168.5t190 68.5q110 0 173 -70.5zM245 583.5q-60 -61.5 -86 -150.5t-26 -177q0 -107 47 -161.5t130 -54.5q98 0 158 62t85 151.5t25 178.5
q0 106 -46 159.5t-131 53.5q-96 0 -156 -61.5zM440 800q-16 7 -34 20q-15 10 -23.5 14t-18.5 4q-20 0 -33 -9t-31 -32l-33 21q45 66 98 66q17 0 30.5 -6t31.5 -18q14 -10 25 -15.5t23 -5.5q16 0 30.5 10.5t32.5 34.5l34 -22q-44 -69 -94 -69q-22 0 -38 7z" />
    <glyph glyph-name="Odieresis" unicode="&#xd6;" horiz-adv-x="688" 
d="M577 625.5q63 -70.5 63 -201.5q0 -100 -33 -200t-107.5 -167.5t-190.5 -67.5q-110 0 -174 71t-64 202q0 97 34 197t109 168.5t190 68.5q110 0 173 -70.5zM245 583.5q-60 -61.5 -86 -150.5t-26 -177q0 -107 47 -161.5t130 -54.5q98 0 158 62t85 151.5t25 178.5
q0 106 -46 159.5t-131 53.5q-96 0 -156 -61.5zM352 857.5q10 -10.5 10 -25.5q0 -19 -11.5 -31t-30.5 -12q-16 0 -26.5 10.5t-10.5 25.5q0 19 12.5 31t30.5 12q16 0 26 -10.5zM540.5 857.5q10.5 -10.5 10.5 -25.5q0 -18 -12 -30.5t-30 -12.5q-16 0 -26.5 10.5t-10.5 25.5
q0 19 12 31t30 12q16 0 26.5 -10.5z" />
    <glyph glyph-name="multiply" unicode="&#xd7;" horiz-adv-x="491" 
d="M287 307l108 -127l-41 -36l-107 127l-141 -127l-33 36l143 127l-108 127l41 37l106 -128l143 128l33 -37z" />
    <glyph glyph-name="Oslash" unicode="&#xd8;" horiz-adv-x="688" 
d="M610 575q30 -62 30 -151q0 -100 -33 -200t-107.5 -167.5t-190.5 -67.5q-40 0 -78 11l-52 -120l-49 15l55 124q-55 31 -84.5 93t-29.5 150q0 97 34 197t109 168.5t190 68.5q42 0 75 -10l53 124l50 -14l-58 -128q56 -31 86 -93zM212 65l250 573q-25 7 -61 7
q-96 0 -156 -61.5t-86 -150.5t-26 -177q0 -140 79 -191zM468 102q60 62 85 151.5t25 178.5q0 143 -80 190l-250 -573q29 -9 62 -9q98 0 158 62z" />
    <glyph glyph-name="Ugrave" unicode="&#xd9;" horiz-adv-x="649" 
d="M462 49.5q-65 -60.5 -173 -60.5q-98 0 -148 49.5t-50 133.5q0 22 3 44l66 469h59l-65 -468q-3 -22 -3 -43q0 -133 139 -133q85 0 132.5 47.5t59.5 132.5l66 464h60l-66 -473q-15 -102 -80 -162.5zM489 758l-187 78l33 52l174 -96z" />
    <glyph glyph-name="Uacute" unicode="&#xda;" horiz-adv-x="649" 
d="M462 49.5q-65 -60.5 -173 -60.5q-98 0 -148 49.5t-50 133.5q0 22 3 44l66 469h59l-65 -468q-3 -22 -3 -43q0 -133 139 -133q85 0 132.5 47.5t59.5 132.5l66 464h60l-66 -473q-15 -102 -80 -162.5zM307 758l-11 34l199 96l20 -52z" />
    <glyph glyph-name="Ucircumflex" unicode="&#xdb;" horiz-adv-x="649" 
d="M462 49.5q-65 -60.5 -173 -60.5q-98 0 -148 49.5t-50 133.5q0 22 3 44l66 469h59l-65 -468q-3 -22 -3 -43q0 -133 139 -133q85 0 132.5 47.5t59.5 132.5l66 464h60l-66 -473q-15 -102 -80 -162.5zM284 762l-25 30l143 102h36l115 -102l-27 -30l-111 80z" />
    <glyph glyph-name="Udieresis" unicode="&#xdc;" horiz-adv-x="649" 
d="M462 49.5q-65 -60.5 -173 -60.5q-98 0 -148 49.5t-50 133.5q0 22 3 44l66 469h59l-65 -468q-3 -22 -3 -43q0 -133 139 -133q85 0 132.5 47.5t59.5 132.5l66 464h60l-66 -473q-15 -102 -80 -162.5zM341 857.5q10 -10.5 10 -25.5q0 -19 -11.5 -31t-30.5 -12
q-16 0 -26.5 10.5t-10.5 25.5q0 19 12.5 31t30.5 12q16 0 26 -10.5zM529.5 857.5q10.5 -10.5 10.5 -25.5q0 -18 -12 -30.5t-30 -12.5q-16 0 -26.5 10.5t-10.5 25.5q0 19 12 31t30 12q16 0 26.5 -10.5z" />
    <glyph glyph-name="Yacute" unicode="&#xdd;" horiz-adv-x="520" 
d="M254 0h-60l38 267l-159 418h63l131 -363l233 363h67l-275 -417zM239 758l-11 34l199 96l20 -52z" />
    <glyph glyph-name="Thorn" unicode="&#xde;" horiz-adv-x="567" 
d="M539 385q0 -64 -27 -120.5t-91 -92.5t-169 -36h-100l-19 -136h-59l96 685h59l-17 -122h99q228 0 228 -178zM425.5 242.5q51.5 56.5 51.5 141.5q0 71 -42 100t-127 29h-103l-46 -327h97q118 0 169.5 56.5z" />
    <glyph glyph-name="germandbls" unicode="&#xdf;" horiz-adv-x="579" 
d="M375.5 379q13.5 -16 43.5 -40q46 -36 72.5 -73t26.5 -97q0 -41 -21 -82.5t-63.5 -69.5t-103.5 -28q-32 0 -61.5 8t-50.5 20l22 41q42 -20 86 -20q46 0 76.5 21t44 51t13.5 58q0 47 -21.5 76.5t-63.5 64.5q-34 28 -51 49.5t-18 51.5q1 35 18.5 56.5t51.5 47.5
q36 27 54.5 50t18.5 60q0 34 -25 53t-68 19q-61 0 -102 -40.5t-52 -119.5l-74 -519q-9 -68 -29 -108t-51.5 -64t-87.5 -49l-17 45q41 19 65 37.5t39.5 51.5t23.5 89l74 523q13 96 70 148.5t142 52.5q68 0 108 -33t40 -86q0 -47 -22 -75t-63 -58q-29 -21 -43.5 -37t-14.5 -38
q0 -21 13.5 -37z" />
    <glyph glyph-name="agrave" unicode="&#xe0;" 
d="M414.5 523.5q38.5 -10.5 82.5 -32.5l-57 -377q-2 -24 -2 -31q0 -23 8 -34.5t25 -18.5l-17 -41q-35 7 -52.5 28.5t-17.5 66.5q-30 -44 -71.5 -69.5t-89.5 -25.5q-78 0 -121.5 54t-43.5 149q0 78 28 157t88.5 132t152.5 53q49 0 87.5 -10.5zM210 441q-47 -46 -69 -114
t-22 -135q0 -76 29.5 -115.5t84.5 -39.5q46 0 83.5 28.5t72.5 82.5l47 315q-50 24 -107 24q-72 0 -119 -46zM445 645l-183 85l33 52l172 -104z" />
    <glyph glyph-name="aacute" unicode="&#xe1;" 
d="M414.5 523.5q38.5 -10.5 82.5 -32.5l-57 -377q-2 -24 -2 -31q0 -23 8 -34.5t25 -18.5l-17 -41q-35 7 -52.5 28.5t-17.5 66.5q-30 -44 -71.5 -69.5t-89.5 -25.5q-78 0 -121.5 54t-43.5 149q0 78 28 157t88.5 132t152.5 53q49 0 87.5 -10.5zM210 441q-47 -46 -69 -114
t-22 -135q0 -76 29.5 -115.5t84.5 -39.5q46 0 83.5 28.5t72.5 82.5l47 315q-50 24 -107 24q-72 0 -119 -46zM252 645l-14 34l201 103l19 -52z" />
    <glyph glyph-name="acircumflex" unicode="&#xe2;" 
d="M414.5 523.5q38.5 -10.5 82.5 -32.5l-57 -377q-2 -24 -2 -31q0 -23 8 -34.5t25 -18.5l-17 -41q-35 7 -52.5 28.5t-17.5 66.5q-30 -44 -71.5 -69.5t-89.5 -25.5q-78 0 -121.5 54t-43.5 149q0 78 28 157t88.5 132t152.5 53q49 0 87.5 -10.5zM210 441q-47 -46 -69 -114
t-22 -135q0 -76 29.5 -115.5t84.5 -39.5q46 0 83.5 28.5t72.5 82.5l47 315q-50 24 -107 24q-72 0 -119 -46zM352 779h35l114 -105l-28 -31l-109 85l-131 -85l-25 31z" />
    <glyph glyph-name="atilde" unicode="&#xe3;" 
d="M414.5 523.5q38.5 -10.5 82.5 -32.5l-57 -377q-2 -24 -2 -31q0 -23 8 -34.5t25 -18.5l-17 -41q-35 7 -52.5 28.5t-17.5 66.5q-30 -44 -71.5 -69.5t-89.5 -25.5q-78 0 -121.5 54t-43.5 149q0 78 28 157t88.5 132t152.5 53q49 0 87.5 -10.5zM210 441q-47 -46 -69 -114
t-22 -135q0 -76 29.5 -115.5t84.5 -39.5q46 0 83.5 28.5t72.5 82.5l47 315q-50 24 -107 24q-72 0 -119 -46zM381 674q-16 7 -35 20q-2 1 -10.5 7t-16 8.5t-14.5 2.5q-20 0 -32.5 -9t-32.5 -33l-33 22q45 66 98 66q17 0 30.5 -6t31.5 -18q15 -11 26 -16t22 -5q16 0 30.5 10.5
t32.5 34.5l34 -22q-44 -70 -94 -70q-21 1 -37 8z" />
    <glyph glyph-name="adieresis" unicode="&#xe4;" 
d="M414.5 523.5q38.5 -10.5 82.5 -32.5l-57 -377q-2 -24 -2 -31q0 -23 8 -34.5t25 -18.5l-17 -41q-35 7 -52.5 28.5t-17.5 66.5q-30 -44 -71.5 -69.5t-89.5 -25.5q-78 0 -121.5 54t-43.5 149q0 78 28 157t88.5 132t152.5 53q49 0 87.5 -10.5zM210 441q-47 -46 -69 -114
t-22 -135q0 -76 29.5 -115.5t84.5 -39.5q46 0 83.5 28.5t72.5 82.5l47 315q-50 24 -107 24q-72 0 -119 -46zM285.5 731.5q10.5 -10.5 10.5 -25.5q0 -18 -12 -30.5t-30 -12.5q-17 0 -27 10.5t-10 25.5q0 18 12 30.5t30 12.5q16 0 26.5 -10.5zM474 731.5q10 -10.5 10 -25.5
q0 -18 -12 -30.5t-30 -12.5q-16 0 -26.5 10.5t-10.5 25.5q0 18 12 30.5t30 12.5q17 0 27 -10.5z" />
    <glyph glyph-name="aring" unicode="&#xe5;" 
d="M414.5 523.5q38.5 -10.5 82.5 -32.5l-57 -377q-2 -24 -2 -31q0 -23 8 -34.5t25 -18.5l-17 -41q-35 7 -52.5 28.5t-17.5 66.5q-30 -44 -71.5 -69.5t-89.5 -25.5q-78 0 -121.5 54t-43.5 149q0 78 28 157t88.5 132t152.5 53q49 0 87.5 -10.5zM210 441q-47 -46 -69 -114
t-22 -135q0 -76 29.5 -115.5t84.5 -39.5q46 0 83.5 28.5t72.5 82.5l47 315q-50 24 -107 24q-72 0 -119 -46zM435.5 797.5q24.5 -23.5 24.5 -59.5q0 -45 -31.5 -75t-78.5 -30q-39 0 -63.5 23.5t-24.5 59.5q0 45 31.5 75t77.5 30q40 0 64.5 -23.5zM326.5 769
q-16.5 -16 -20.5 -46q-1 -3 -1 -9q0 -21 12.5 -33t34.5 -12q26 0 42 16t21 45q2 8 2 12q0 20 -13 31.5t-35 11.5q-26 0 -42.5 -16z" />
    <glyph glyph-name="ae" unicode="&#xe6;" horiz-adv-x="847" 
d="M402 506.5q37 -27.5 49 -74.5q24 41 75 71.5t115 30.5q73 0 115 -35.5t42 -91.5q0 -95 -94.5 -140.5t-269.5 -59.5q0 -168 136 -168q41 0 75 13t72 40l27 -41q-42 -31 -85.5 -46.5t-92.5 -15.5q-62 0 -106 27t-65 77q-45 -56 -94 -80t-107 -24q-69 0 -108.5 37t-39.5 99
q0 77 58 128t183 51h102q12 49 24 78q-2 46 -35.5 74.5t-87.5 28.5q-61 0 -143 -29l-13 46q89 32 167 32q64 0 101 -27.5zM500 417.5q-51 -68.5 -63 -164.5q152 12 226 47.5t74 104.5q0 34 -24.5 57.5t-71.5 23.5q-90 0 -141 -68.5zM153 224q-45 -37 -45 -99q0 -43 25.5 -66
t70.5 -23q49 0 92.5 25.5t85.5 80.5q-5 25 -5 59q0 28 4 60h-88q-95 0 -140 -37z" />
    <glyph glyph-name="ccedilla" unicode="&#xe7;" horiz-adv-x="467" 
d="M205 440q-45 -45 -65 -111t-20 -132q0 -78 35 -117.5t96 -39.5q36 0 66.5 11t62.5 33l25 -41q-68 -51 -147 -54l-9 -53q83 -6 83 -69q0 -39 -31.5 -66.5t-82.5 -27.5q-49 0 -79 23l22 34q23 -15 56 -15q26 -1 45.5 12.5t19.5 36.5q0 21 -18.5 30.5t-64.5 10.5l19 86
q-75 9 -116.5 63t-41.5 146q0 76 27 153t85.5 129t147.5 52q86 0 141 -54l-33 -36q-22 21 -47.5 31t-59.5 10q-71 0 -116 -45z" />
    <glyph glyph-name="egrave" unicode="&#xe8;" horiz-adv-x="520" 
d="M386.5 266q-94.5 -47 -266.5 -60l-1 -6q0 -82 36 -121.5t98 -39.5q41 0 75.5 13t72.5 40l26 -41q-42 -31 -85.5 -46.5t-92.5 -15.5q-90 0 -140 55t-50 155q0 79 28 156t87.5 128t147.5 51q74 0 116.5 -35.5t42.5 -90.5q0 -95 -94.5 -142zM183.5 416.5
q-49.5 -69.5 -60.5 -165.5q150 12 224 49t74 106q0 34 -25 57t-75 23q-88 0 -137.5 -69.5zM424 645l-183 85l33 52l172 -104z" />
    <glyph glyph-name="eacute" unicode="&#xe9;" horiz-adv-x="520" 
d="M386.5 266q-94.5 -47 -266.5 -60l-1 -6q0 -82 36 -121.5t98 -39.5q41 0 75.5 13t72.5 40l26 -41q-42 -31 -85.5 -46.5t-92.5 -15.5q-90 0 -140 55t-50 155q0 79 28 156t87.5 128t147.5 51q74 0 116.5 -35.5t42.5 -90.5q0 -95 -94.5 -142zM183.5 416.5
q-49.5 -69.5 -60.5 -165.5q150 12 224 49t74 106q0 34 -25 57t-75 23q-88 0 -137.5 -69.5zM231 645l-14 34l201 103l19 -52z" />
    <glyph glyph-name="ecircumflex" unicode="&#xea;" horiz-adv-x="520" 
d="M386.5 266q-94.5 -47 -266.5 -60l-1 -6q0 -82 36 -121.5t98 -39.5q41 0 75.5 13t72.5 40l26 -41q-42 -31 -85.5 -46.5t-92.5 -15.5q-90 0 -140 55t-50 155q0 79 28 156t87.5 128t147.5 51q74 0 116.5 -35.5t42.5 -90.5q0 -95 -94.5 -142zM183.5 416.5
q-49.5 -69.5 -60.5 -165.5q150 12 224 49t74 106q0 34 -25 57t-75 23q-88 0 -137.5 -69.5zM332 779h35l114 -105l-28 -31l-109 85l-131 -85l-25 31z" />
    <glyph glyph-name="edieresis" unicode="&#xeb;" horiz-adv-x="520" 
d="M386.5 266q-94.5 -47 -266.5 -60l-1 -6q0 -82 36 -121.5t98 -39.5q41 0 75.5 13t72.5 40l26 -41q-42 -31 -85.5 -46.5t-92.5 -15.5q-90 0 -140 55t-50 155q0 79 28 156t87.5 128t147.5 51q74 0 116.5 -35.5t42.5 -90.5q0 -95 -94.5 -142zM183.5 416.5
q-49.5 -69.5 -60.5 -165.5q150 12 224 49t74 106q0 34 -25 57t-75 23q-88 0 -137.5 -69.5zM264.5 731.5q10.5 -10.5 10.5 -25.5q0 -18 -12 -30.5t-30 -12.5q-17 0 -27 10.5t-10 25.5q0 18 12 30.5t30 12.5q16 0 26.5 -10.5zM453 731.5q10 -10.5 10 -25.5q0 -18 -12 -30.5
t-30 -12.5q-16 0 -26.5 10.5t-10.5 25.5q0 18 12 30.5t30 12.5q17 0 27 -10.5z" />
    <glyph glyph-name="igrave" unicode="&#xec;" horiz-adv-x="269" 
d="M69 0l74 523h58l-74 -523h-58zM283 645l-183 85l33 52l172 -104z" />
    <glyph glyph-name="iacute" unicode="&#xed;" horiz-adv-x="269" 
d="M69 0l74 523h58l-74 -523h-58zM91 645l-14 34l201 103l19 -52z" />
    <glyph glyph-name="icircumflex" unicode="&#xee;" horiz-adv-x="269" 
d="M69 0l74 523h58l-74 -523h-58zM191 779h35l114 -105l-28 -31l-109 85l-131 -85l-25 31z" />
    <glyph glyph-name="idieresis" unicode="&#xef;" horiz-adv-x="269" 
d="M69 0l74 523h58l-74 -523h-58zM124.5 731.5q10.5 -10.5 10.5 -25.5q0 -18 -12 -30.5t-30 -12.5q-17 0 -27 10.5t-10 25.5q0 18 12 30.5t30 12.5q16 0 26.5 -10.5zM313 731.5q10 -10.5 10 -25.5q0 -18 -12 -30.5t-30 -12.5q-16 0 -26.5 10.5t-10.5 25.5q0 18 12 30.5
t30 12.5q17 0 27 -10.5z" />
    <glyph glyph-name="eth" unicode="&#xf0;" horiz-adv-x="559" 
d="M466 544.5q29 -67.5 29 -159.5q0 -47 -8 -109q-20 -139 -86.5 -213t-164.5 -74q-83 0 -131.5 51.5t-48.5 142.5q0 69 23.5 134t75 108t129.5 43q98 0 154 -77q-2 80 -24.5 136t-72.5 102l-88 -77l-40 20l91 82q-58 33 -114 44l16 46q80 -18 136 -56l80 74l32 -31l-76 -69
q59 -50 88 -117.5zM361 100.5q51 63.5 68 183.5q3 17 5 50q-54 87 -143 87q-93 0 -134.5 -71.5t-41.5 -167.5q0 -70 31.5 -107.5t90.5 -37.5q73 0 124 63.5z" />
    <glyph glyph-name="ntilde" unicode="&#xf1;" horiz-adv-x="581" 
d="M467.5 501.5q31.5 -32.5 31.5 -92.5q0 -17 -3 -37l-52 -372h-58l52 367q3 21 3 36q0 44 -20.5 63t-61.5 19q-51 0 -99.5 -47t-89.5 -125l-44 -313h-57l74 523h48l-13 -130q40 66 91.5 103.5t106.5 37.5q60 0 91.5 -32.5zM381 674q-16 7 -35 20q-2 1 -10.5 7t-16 8.5
t-14.5 2.5q-20 0 -32.5 -9t-32.5 -33l-33 22q45 66 98 66q17 0 30.5 -6t31.5 -18q15 -11 26 -16t22 -5q16 0 30.5 10.5t32.5 34.5l34 -22q-44 -70 -94 -70q-21 1 -37 8z" />
    <glyph glyph-name="ograve" unicode="&#xf2;" horiz-adv-x="569" 
d="M460.5 479q49.5 -55 49.5 -155q0 -74 -26 -151t-84.5 -130.5t-150.5 -53.5q-91 0 -140.5 56t-49.5 156q0 75 26.5 151.5t85 129t150.5 52.5q90 0 139.5 -55zM202 439.5q-45 -46.5 -64 -113.5t-19 -130q0 -78 33.5 -118t97.5 -40q71 0 115.5 46t64 113t19.5 131
q0 78 -33.5 118t-96.5 40q-72 0 -117 -46.5zM434 645l-183 85l33 52l172 -104z" />
    <glyph glyph-name="oacute" unicode="&#xf3;" horiz-adv-x="569" 
d="M460.5 479q49.5 -55 49.5 -155q0 -74 -26 -151t-84.5 -130.5t-150.5 -53.5q-91 0 -140.5 56t-49.5 156q0 75 26.5 151.5t85 129t150.5 52.5q90 0 139.5 -55zM202 439.5q-45 -46.5 -64 -113.5t-19 -130q0 -78 33.5 -118t97.5 -40q71 0 115.5 46t64 113t19.5 131
q0 78 -33.5 118t-96.5 40q-72 0 -117 -46.5zM240 645l-14 34l201 103l19 -52z" />
    <glyph glyph-name="ocircumflex" unicode="&#xf4;" horiz-adv-x="569" 
d="M460.5 479q49.5 -55 49.5 -155q0 -74 -26 -151t-84.5 -130.5t-150.5 -53.5q-91 0 -140.5 56t-49.5 156q0 75 26.5 151.5t85 129t150.5 52.5q90 0 139.5 -55zM202 439.5q-45 -46.5 -64 -113.5t-19 -130q0 -78 33.5 -118t97.5 -40q71 0 115.5 46t64 113t19.5 131
q0 78 -33.5 118t-96.5 40q-72 0 -117 -46.5zM341 779h35l114 -105l-28 -31l-109 85l-131 -85l-25 31z" />
    <glyph glyph-name="otilde" unicode="&#xf5;" horiz-adv-x="569" 
d="M460.5 479q49.5 -55 49.5 -155q0 -74 -26 -151t-84.5 -130.5t-150.5 -53.5q-91 0 -140.5 56t-49.5 156q0 75 26.5 151.5t85 129t150.5 52.5q90 0 139.5 -55zM202 439.5q-45 -46.5 -64 -113.5t-19 -130q0 -78 33.5 -118t97.5 -40q71 0 115.5 46t64 113t19.5 131
q0 78 -33.5 118t-96.5 40q-72 0 -117 -46.5zM369 674q-16 7 -35 20q-2 1 -10.5 7t-16 8.5t-14.5 2.5q-20 0 -32.5 -9t-32.5 -33l-33 22q45 66 98 66q17 0 30.5 -6t31.5 -18q15 -11 26 -16t22 -5q16 0 30.5 10.5t32.5 34.5l34 -22q-44 -70 -94 -70q-21 1 -37 8z" />
    <glyph glyph-name="odieresis" unicode="&#xf6;" horiz-adv-x="569" 
d="M460.5 479q49.5 -55 49.5 -155q0 -74 -26 -151t-84.5 -130.5t-150.5 -53.5q-91 0 -140.5 56t-49.5 156q0 75 26.5 151.5t85 129t150.5 52.5q90 0 139.5 -55zM202 439.5q-45 -46.5 -64 -113.5t-19 -130q0 -78 33.5 -118t97.5 -40q71 0 115.5 46t64 113t19.5 131
q0 78 -33.5 118t-96.5 40q-72 0 -117 -46.5zM274.5 731.5q10.5 -10.5 10.5 -25.5q0 -18 -12 -30.5t-30 -12.5q-17 0 -27 10.5t-10 25.5q0 18 12 30.5t30 12.5q16 0 26.5 -10.5zM463 731.5q10 -10.5 10 -25.5q0 -18 -12 -30.5t-30 -12.5q-16 0 -26.5 10.5t-10.5 25.5
q0 18 12 30.5t30 12.5q17 0 27 -10.5z" />
    <glyph glyph-name="divide" unicode="&#xf7;" horiz-adv-x="491" 
d="M255.5 147.5q11.5 -12.5 11.5 -31.5q0 -21 -14.5 -36t-36.5 -15q-19 0 -31 12.5t-12 30.5q0 22 14.5 37t36.5 15q20 0 31.5 -12.5zM316.5 584.5q11.5 -12.5 11.5 -31.5q0 -21 -14.5 -36t-36.5 -15q-19 0 -31 12.5t-12 30.5q0 22 14.5 37t36.5 15q20 0 31.5 -12.5z
M435 357l-7 -51h-353l7 51h353z" />
    <glyph glyph-name="oslash" unicode="&#xf8;" horiz-adv-x="569" 
d="M428 506q40 -26 61 -72t21 -110q0 -74 -26 -151t-84.5 -130.5t-150.5 -53.5q-34 0 -63 9l-58 -123l-47 14l61 128q-41 26 -62 73t-21 111q0 75 26.5 151.5t85 129t150.5 52.5q35 0 63 -9l57 123l47 -14zM202 439.5q-45 -46.5 -64 -113.5t-19 -130q0 -97 51 -134l197 417
q-20 7 -48 7q-72 0 -117 -46.5zM250 38q71 0 115.5 46t64 113t19.5 131q0 96 -48 133l-197 -416q18 -7 46 -7z" />
    <glyph glyph-name="ugrave" unicode="&#xf9;" horiz-adv-x="577" 
d="M385 0l14 133q-36 -67 -84.5 -105.5t-108.5 -38.5q-59 0 -91.5 33t-32.5 94q0 11 2 35l53 372h57l-52 -370q-2 -24 -2 -34q0 -43 19.5 -62.5t57.5 -19.5q102 0 188 166l44 320h58l-74 -523h-48zM436 645l-183 85l33 52l172 -104z" />
    <glyph glyph-name="uacute" unicode="&#xfa;" horiz-adv-x="577" 
d="M385 0l14 133q-36 -67 -84.5 -105.5t-108.5 -38.5q-59 0 -91.5 33t-32.5 94q0 11 2 35l53 372h57l-52 -370q-2 -24 -2 -34q0 -43 19.5 -62.5t57.5 -19.5q102 0 188 166l44 320h58l-74 -523h-48zM243 645l-14 34l201 103l19 -52z" />
    <glyph glyph-name="ucircumflex" unicode="&#xfb;" horiz-adv-x="577" 
d="M385 0l14 133q-36 -67 -84.5 -105.5t-108.5 -38.5q-59 0 -91.5 33t-32.5 94q0 11 2 35l53 372h57l-52 -370q-2 -24 -2 -34q0 -43 19.5 -62.5t57.5 -19.5q102 0 188 166l44 320h58l-74 -523h-48zM343 779h35l114 -105l-28 -31l-109 85l-131 -85l-25 31z" />
    <glyph glyph-name="udieresis" unicode="&#xfc;" horiz-adv-x="577" 
d="M385 0l14 133q-36 -67 -84.5 -105.5t-108.5 -38.5q-59 0 -91.5 33t-32.5 94q0 11 2 35l53 372h57l-52 -370q-2 -24 -2 -34q0 -43 19.5 -62.5t57.5 -19.5q102 0 188 166l44 320h58l-74 -523h-48zM276.5 731.5q10.5 -10.5 10.5 -25.5q0 -18 -12 -30.5t-30 -12.5
q-17 0 -27 10.5t-10 25.5q0 18 12 30.5t30 12.5q16 0 26.5 -10.5zM465 731.5q10 -10.5 10 -25.5q0 -18 -12 -30.5t-30 -12.5q-16 0 -26.5 10.5t-10.5 25.5q0 18 12 30.5t30 12.5q17 0 27 -10.5z" />
    <glyph glyph-name="yacute" unicode="&#xfd;" horiz-adv-x="465" 
d="M142 -140q-53 -46 -147 -64l-3 45q53 13 85.5 32.5t54.5 48t48 79.5l-21 -1l-107 523h61l90 -479l223 479h61l-249 -527q-43 -90 -96 -136zM184 645l-14 34l201 103l19 -52z" />
    <glyph glyph-name="thorn" unicode="&#xfe;" horiz-adv-x="578" 
d="M472 483q41 -51 41 -147q0 -80 -26.5 -159.5t-87 -133.5t-155.5 -54q-61 0 -117 23l-29 -211l-59 -8l134 943l58 7l-41 -286q77 77 165 77q76 0 117 -51zM366.5 85q46.5 48 67 117.5t20.5 137.5q0 146 -112 146q-46 0 -83.5 -22.5t-76.5 -65.5l-47 -339q29 -11 54 -16.5
t58 -5.5q73 0 119.5 48z" />
    <glyph glyph-name="ydieresis" unicode="&#xff;" horiz-adv-x="465" 
d="M142 -140q-53 -46 -147 -64l-3 45q53 13 85.5 32.5t54.5 48t48 79.5l-21 -1l-107 523h61l90 -479l223 479h61l-249 -527q-43 -90 -96 -136zM217.5 731.5q10.5 -10.5 10.5 -25.5q0 -18 -12 -30.5t-30 -12.5q-17 0 -27 10.5t-10 25.5q0 18 12 30.5t30 12.5q16 0 26.5 -10.5
zM406 731.5q10 -10.5 10 -25.5q0 -18 -12 -30.5t-30 -12.5q-16 0 -26.5 10.5t-10.5 25.5q0 18 12 30.5t30 12.5q17 0 27 -10.5z" />
    <glyph glyph-name="Amacron" unicode="&#x100;" horiz-adv-x="562" 
d="M127 187l-87 -187h-61l324 685h75l131 -685h-62l-33 187h-287zM334 636l-184 -398h255zM244 849h240l-7 -47h-240z" />
    <glyph glyph-name="amacron" unicode="&#x101;" 
d="M414.5 523.5q38.5 -10.5 82.5 -32.5l-57 -377q-2 -24 -2 -31q0 -23 8 -34.5t25 -18.5l-17 -41q-35 7 -52.5 28.5t-17.5 66.5q-30 -44 -71.5 -69.5t-89.5 -25.5q-78 0 -121.5 54t-43.5 149q0 78 28 157t88.5 132t152.5 53q49 0 87.5 -10.5zM210 441q-47 -46 -69 -114
t-22 -135q0 -76 29.5 -115.5t84.5 -39.5q46 0 83.5 28.5t72.5 82.5l47 315q-50 24 -107 24q-72 0 -119 -46zM241 723h240l-7 -47h-240z" />
    <glyph glyph-name="Abreve" unicode="&#x102;" horiz-adv-x="562" 
d="M127 187l-87 -187h-61l324 685h75l131 -685h-62l-33 187h-287zM334 636l-184 -398h255zM263.5 794q-32.5 29 -33.5 73l39 5q6 -28 26.5 -44t53.5 -16q35 0 61 17t40 46l39 -12q-12 -43 -51.5 -70.5t-89.5 -27.5q-52 0 -84.5 29z" />
    <glyph glyph-name="abreve" unicode="&#x103;" 
d="M414.5 523.5q38.5 -10.5 82.5 -32.5l-57 -377q-2 -24 -2 -31q0 -23 8 -34.5t25 -18.5l-17 -41q-35 7 -52.5 28.5t-17.5 66.5q-30 -44 -71.5 -69.5t-89.5 -25.5q-78 0 -121.5 54t-43.5 149q0 78 28 157t88.5 132t152.5 53q49 0 87.5 -10.5zM210 441q-47 -46 -69 -114
t-22 -135q0 -76 29.5 -115.5t84.5 -39.5q46 0 83.5 28.5t72.5 82.5l47 315q-50 24 -107 24q-72 0 -119 -46zM268 684q-32 31 -32 81l41 6q9 -71 76 -71q36 0 63 19t41 54l38 -12q-13 -49 -52.5 -78.5t-90.5 -29.5q-52 0 -84 31z" />
    <glyph glyph-name="Aogonek" unicode="&#x104;" horiz-adv-x="562" 
d="M384 -61q-32 -29 -32 -64q0 -44 55 -44q24 0 59 6l-10 -49q-30 -6 -57 -6q-49 0 -75 23t-26 59q0 48 34 83.5t113 65.5l-31 174h-287l-87 -187h-61l324 685h75l131 -685h-17q-76 -32 -108 -61zM334 636l-184 -398h255z" />
    <glyph glyph-name="aogonek" unicode="&#x105;" 
d="M446 48.5q8 -11.5 25 -18.5l-17 -41q-76 -32 -108 -61t-32 -64q0 -44 55 -44q25 0 59 6l-10 -49q-30 -6 -57 -6q-49 0 -75 23t-26 59q0 49 36 85.5t119 66.5q-31 22 -31 79q-30 -44 -71.5 -69.5t-89.5 -25.5q-78 0 -121.5 54t-43.5 149q0 78 28 157t88.5 132t152.5 53
q49 0 87.5 -10.5t82.5 -32.5l-57 -377q-2 -24 -2 -31q0 -23 8 -34.5zM329 487q-72 0 -119 -46t-69 -114t-22 -135q0 -76 29.5 -115.5t84.5 -39.5q46 0 83.5 28.5t72.5 82.5l47 315q-50 24 -107 24z" />
    <glyph glyph-name="Cacute" unicode="&#x106;" horiz-adv-x="548" 
d="M494 680q40 -16 75 -48l-37 -38q-30 27 -60 39t-69 12q-94 0 -155 -59.5t-88 -148t-27 -177.5q0 -109 48 -163.5t128 -54.5q49 0 84.5 15t75.5 44l28 -43q-85 -69 -192 -69t-170.5 71.5t-63.5 202.5q0 100 34.5 199.5t108.5 166.5t185 67q55 0 95 -16zM323 758l-11 34
l199 96l20 -52z" />
    <glyph glyph-name="cacute" unicode="&#x107;" horiz-adv-x="467" 
d="M461 480l-33 -36q-22 21 -47.5 31t-59.5 10q-71 0 -116 -45t-65 -111t-20 -132q0 -78 35 -117.5t96 -39.5q36 0 66.5 11t62.5 33l25 -41q-71 -54 -155 -54q-90 0 -140 55t-50 156q0 76 27 153t85.5 129t147.5 52q86 0 141 -54zM242 645l-14 34l201 103l19 -52z" />
    <glyph glyph-name="Ccircumflex" unicode="&#x108;" horiz-adv-x="548" 
d="M494 680q40 -16 75 -48l-37 -38q-30 27 -60 39t-69 12q-94 0 -155 -59.5t-88 -148t-27 -177.5q0 -109 48 -163.5t128 -54.5q49 0 84.5 15t75.5 44l28 -43q-85 -69 -192 -69t-170.5 71.5t-63.5 202.5q0 100 34.5 199.5t108.5 166.5t185 67q55 0 95 -16zM300 762l-25 30
l143 102h36l115 -102l-27 -30l-111 80z" />
    <glyph glyph-name="ccircumflex" unicode="&#x109;" horiz-adv-x="467" 
d="M461 480l-33 -36q-22 21 -47.5 31t-59.5 10q-71 0 -116 -45t-65 -111t-20 -132q0 -78 35 -117.5t96 -39.5q36 0 66.5 11t62.5 33l25 -41q-71 -54 -155 -54q-90 0 -140 55t-50 156q0 76 27 153t85.5 129t147.5 52q86 0 141 -54zM343 779h35l114 -105l-28 -31l-109 85
l-131 -85l-25 31z" />
    <glyph glyph-name="Cdotaccent" unicode="&#x10a;" horiz-adv-x="548" 
d="M494 680q40 -16 75 -48l-37 -38q-30 27 -60 39t-69 12q-94 0 -155 -59.5t-88 -148t-27 -177.5q0 -109 48 -163.5t128 -54.5q49 0 84.5 15t75.5 44l28 -43q-85 -69 -192 -69t-170.5 71.5t-63.5 202.5q0 100 34.5 199.5t108.5 166.5t185 67q55 0 95 -16zM456 868.5
q11 -10.5 11 -27.5q0 -20 -12.5 -32.5t-33.5 -12.5q-18 0 -29 11t-11 28q0 19 13 31.5t33 12.5q18 0 29 -10.5z" />
    <glyph glyph-name="cdotaccent" unicode="&#x10b;" horiz-adv-x="467" 
d="M461 480l-33 -36q-22 21 -47.5 31t-59.5 10q-71 0 -116 -45t-65 -111t-20 -132q0 -78 35 -117.5t96 -39.5q36 0 66.5 11t62.5 33l25 -41q-71 -54 -155 -54q-90 0 -140 55t-50 156q0 76 27 153t85.5 129t147.5 52q86 0 141 -54zM381.5 742.5q10.5 -10.5 10.5 -27.5
q0 -19 -12.5 -32t-33.5 -14q-18 1 -29 11.5t-11 27.5q0 20 13 32.5t33 12.5q19 0 29.5 -10.5z" />
    <glyph glyph-name="Ccaron" unicode="&#x10c;" horiz-adv-x="548" 
d="M494 680q40 -16 75 -48l-37 -38q-30 27 -60 39t-69 12q-94 0 -155 -59.5t-88 -148t-27 -177.5q0 -109 48 -163.5t128 -54.5q49 0 84.5 15t75.5 44l28 -43q-85 -69 -192 -69t-170.5 71.5t-63.5 202.5q0 100 34.5 199.5t108.5 166.5t185 67q55 0 95 -16zM425 756h-35
l-116 101l28 30l110 -79l132 80l23 -31z" />
    <glyph glyph-name="ccaron" unicode="&#x10d;" horiz-adv-x="467" 
d="M461 480l-33 -36q-22 21 -47.5 31t-59.5 10q-71 0 -116 -45t-65 -111t-20 -132q0 -78 35 -117.5t96 -39.5q36 0 66.5 11t62.5 33l25 -41q-71 -54 -155 -54q-90 0 -140 55t-50 156q0 76 27 153t85.5 129t147.5 52q86 0 141 -54zM360 634h-36l-114 106l27 30l110 -84
l133 84l23 -30z" />
    <glyph glyph-name="Dcaron" unicode="&#x10e;" horiz-adv-x="630" 
d="M505 629.5q76 -55.5 76 -200.5q0 -115 -36.5 -212t-117 -157t-206.5 -60h-147l96 685h134q125 0 201 -55.5zM141 50h89q104 0 169 55t93.5 141t28.5 184q0 121 -58.5 163t-155.5 42h-85zM381 756h-35l-116 101l28 30l110 -79l132 80l23 -31z" />
    <glyph glyph-name="dcaron" unicode="&#x10f;" horiz-adv-x="604" 
d="M436 0h-50l7 106q-68 -117 -173 -117q-76 0 -118.5 55t-42.5 151q0 76 25 154t80 131.5t140 53.5q90 0 139 -72l40 281l57 -7zM201.5 439.5q-43.5 -46.5 -62.5 -114t-19 -133.5q0 -76 28.5 -115.5t80.5 -39.5q54 0 93.5 36t81.5 108l32 228q-21 36 -50.5 56.5t-73.5 20.5
q-67 0 -110.5 -46.5zM615 572l-35 5l40 165l55 -6z" />
    <glyph glyph-name="Dcroat" unicode="&#x110;" horiz-adv-x="629" 
d="M505 629.5q76 -55.5 76 -201.5q0 -114 -36.5 -211t-117 -157t-206.5 -60h-148l46 330h-86l6 46h87l44 309h134q125 0 201 -55.5zM399 105q65 55 93.5 141t28.5 184q0 121 -58.5 163t-155.5 42h-85l-36 -259h178l-7 -46h-178l-38 -280h89q104 0 169 55z" />
    <glyph glyph-name="dcroat" unicode="&#x111;" horiz-adv-x="590" 
d="M528 616l-87 -616h-50l7 106q-68 -117 -173 -117q-76 0 -118.5 55t-42.5 151q0 76 25 154t80 131.5t140 53.5q90 0 139 -72l22 154h-161v47h167l12 80l57 -7l-11 -73h76l-7 -47h-75zM390.5 465.5q-29.5 20.5 -73.5 20.5q-67 0 -110.5 -46.5t-62.5 -114t-19 -133.5
q0 -76 28.5 -115.5t80.5 -39.5q54 0 93.5 36t81.5 108l32 228q-21 36 -50.5 56.5z" />
    <glyph glyph-name="Emacron" unicode="&#x112;" horiz-adv-x="509" 
d="M222 635l-36 -255h242l-6 -50h-242l-39 -280h293l-8 -50h-352l96 685h346l-14 -50h-280zM250 849h240l-7 -47h-240z" />
    <glyph glyph-name="emacron" unicode="&#x113;" horiz-adv-x="520" 
d="M386.5 266q-94.5 -47 -266.5 -60l-1 -6q0 -82 36 -121.5t98 -39.5q41 0 75.5 13t72.5 40l26 -41q-42 -31 -85.5 -46.5t-92.5 -15.5q-90 0 -140 55t-50 155q0 79 28 156t87.5 128t147.5 51q74 0 116.5 -35.5t42.5 -90.5q0 -95 -94.5 -142zM183.5 416.5
q-49.5 -69.5 -60.5 -165.5q150 12 224 49t74 106q0 34 -25 57t-75 23q-88 0 -137.5 -69.5zM220 723h240l-7 -47h-240z" />
    <glyph glyph-name="Ebreve" unicode="&#x114;" horiz-adv-x="509" 
d="M222 635l-36 -255h242l-6 -50h-242l-39 -280h293l-8 -50h-352l96 685h346l-14 -50h-280zM269.5 794q-32.5 29 -33.5 73l39 5q6 -28 26.5 -44t53.5 -16q35 0 61 17t40 46l39 -12q-12 -43 -51.5 -70.5t-89.5 -27.5q-52 0 -84.5 29z" />
    <glyph glyph-name="ebreve" unicode="&#x115;" horiz-adv-x="520" 
d="M386.5 266q-94.5 -47 -266.5 -60l-1 -6q0 -82 36 -121.5t98 -39.5q41 0 75.5 13t72.5 40l26 -41q-42 -31 -85.5 -46.5t-92.5 -15.5q-90 0 -140 55t-50 155q0 79 28 156t87.5 128t147.5 51q74 0 116.5 -35.5t42.5 -90.5q0 -95 -94.5 -142zM183.5 416.5
q-49.5 -69.5 -60.5 -165.5q150 12 224 49t74 106q0 34 -25 57t-75 23q-88 0 -137.5 -69.5zM248 684q-32 31 -32 81l41 6q9 -71 76 -71q36 0 63 19t41 54l38 -12q-13 -49 -52.5 -78.5t-90.5 -29.5q-52 0 -84 31z" />
    <glyph glyph-name="Edotaccent" unicode="&#x116;" horiz-adv-x="509" 
d="M222 635l-36 -255h242l-6 -50h-242l-39 -280h293l-8 -50h-352l96 685h346l-14 -50h-280zM400 868.5q11 -10.5 11 -27.5q0 -20 -12.5 -32.5t-33.5 -12.5q-18 0 -29 11t-11 28q0 19 13 31.5t33 12.5q18 0 29 -10.5z" />
    <glyph glyph-name="edotaccent" unicode="&#x117;" horiz-adv-x="520" 
d="M386.5 266q-94.5 -47 -266.5 -60l-1 -6q0 -82 36 -121.5t98 -39.5q41 0 75.5 13t72.5 40l26 -41q-42 -31 -85.5 -46.5t-92.5 -15.5q-90 0 -140 55t-50 155q0 79 28 156t87.5 128t147.5 51q74 0 116.5 -35.5t42.5 -90.5q0 -95 -94.5 -142zM183.5 416.5
q-49.5 -69.5 -60.5 -165.5q150 12 224 49t74 106q0 34 -25 57t-75 23q-88 0 -137.5 -69.5zM370.5 742.5q10.5 -10.5 10.5 -27.5q0 -19 -12.5 -32t-33.5 -14q-18 1 -29 11.5t-11 27.5q0 20 13 32.5t33 12.5q19 0 29.5 -10.5z" />
    <glyph glyph-name="Eogonek" unicode="&#x118;" horiz-adv-x="509" 
d="M186 380h242l-6 -50h-242l-39 -280h293l-8 -50h-30q-76 -32 -108.5 -61t-32.5 -64q0 -44 56 -44q23 0 58 6l-10 -49q-30 -6 -57 -6q-48 0 -74.5 23t-26.5 59q0 42 27 75t89 61h-243l96 685h346l-14 -50h-280z" />
    <glyph glyph-name="eogonek" unicode="&#x119;" horiz-adv-x="520" 
d="M386.5 266q-94.5 -47 -266.5 -60l-1 -6q0 -82 36 -121.5t98 -39.5q41 0 75.5 13t72.5 40l26 -41q-48 -36 -97 -50q-61 -29 -86.5 -54.5t-25.5 -58.5q0 -25 16 -38.5t48 -13.5q25 0 56 7l-5 -49q-30 -6 -58 -6q-53 0 -82.5 26t-29.5 66q0 66 82 109q-89 2 -137.5 56.5
t-48.5 153.5q0 79 28 156t87.5 128t147.5 51q74 0 116.5 -35.5t42.5 -90.5q0 -95 -94.5 -142zM183.5 416.5q-49.5 -69.5 -60.5 -165.5q150 12 224 49t74 106q0 34 -25 57t-75 23q-88 0 -137.5 -69.5z" />
    <glyph glyph-name="Ecaron" unicode="&#x11a;" horiz-adv-x="509" 
d="M222 635l-36 -255h242l-6 -50h-242l-39 -280h293l-8 -50h-352l96 685h346l-14 -50h-280zM370 756h-35l-116 101l28 30l110 -79l132 80l23 -31z" />
    <glyph glyph-name="ecaron" unicode="&#x11b;" horiz-adv-x="520" 
d="M386.5 266q-94.5 -47 -266.5 -60l-1 -6q0 -82 36 -121.5t98 -39.5q41 0 75.5 13t72.5 40l26 -41q-42 -31 -85.5 -46.5t-92.5 -15.5q-90 0 -140 55t-50 155q0 79 28 156t87.5 128t147.5 51q74 0 116.5 -35.5t42.5 -90.5q0 -95 -94.5 -142zM183.5 416.5
q-49.5 -69.5 -60.5 -165.5q150 12 224 49t74 106q0 34 -25 57t-75 23q-88 0 -137.5 -69.5zM349 634h-36l-114 106l27 30l110 -84l133 84l23 -30z" />
    <glyph glyph-name="Gcircumflex" unicode="&#x11c;" horiz-adv-x="616" 
d="M506 679q44 -17 83 -52l-40 -36q-32 29 -65 41.5t-78 12.5q-90 0 -151.5 -58t-91.5 -148t-30 -186q0 -107 47.5 -160t135.5 -53q79 0 147 37l35 242h-132l-1 50h199l-44 -322q-98 -58 -210 -58t-175.5 69.5t-63.5 201.5q0 106 37.5 206.5t113.5 165t184 64.5
q56 0 100 -17zM307 762l-25 30l143 102h36l115 -102l-27 -30l-111 80z" />
    <glyph glyph-name="gcircumflex" unicode="&#x11d;" horiz-adv-x="565" 
d="M415.5 523.5q38.5 -10.5 81.5 -32.5l-71 -487q-31 -211 -219 -211q-90 0 -173 49l23 44q78 -43 148 -43q142 0 164 160l12 87q-30 -42 -70.5 -66t-86.5 -24q-79 0 -122.5 54.5t-43.5 147.5q0 78 28.5 154t89 127t152.5 51q49 0 87.5 -10.5zM210.5 443.5
q-47.5 -43.5 -69.5 -109t-22 -132.5q0 -74 29.5 -113.5t83.5 -40.5q47 0 85.5 28.5t73.5 81.5l46 305q-50 24 -108 24q-71 0 -118.5 -43.5zM340 779h35l114 -105l-28 -31l-109 85l-131 -85l-25 31z" />
    <glyph glyph-name="Gbreve" unicode="&#x11e;" horiz-adv-x="616" 
d="M506 679q44 -17 83 -52l-40 -36q-32 29 -65 41.5t-78 12.5q-90 0 -151.5 -58t-91.5 -148t-30 -186q0 -107 47.5 -160t135.5 -53q79 0 147 37l35 242h-132l-1 50h199l-44 -322q-98 -58 -210 -58t-175.5 69.5t-63.5 201.5q0 106 37.5 206.5t113.5 165t184 64.5
q56 0 100 -17zM331.5 794q-32.5 29 -33.5 73l39 5q6 -28 26.5 -44t53.5 -16q35 0 61 17t40 46l39 -12q-12 -43 -51.5 -70.5t-89.5 -27.5q-52 0 -84.5 29z" />
    <glyph glyph-name="gbreve" unicode="&#x11f;" horiz-adv-x="565" 
d="M415.5 523.5q38.5 -10.5 81.5 -32.5l-71 -487q-31 -211 -219 -211q-90 0 -173 49l23 44q78 -43 148 -43q142 0 164 160l12 87q-30 -42 -70.5 -66t-86.5 -24q-79 0 -122.5 54.5t-43.5 147.5q0 78 28.5 154t89 127t152.5 51q49 0 87.5 -10.5zM210.5 443.5
q-47.5 -43.5 -69.5 -109t-22 -132.5q0 -74 29.5 -113.5t83.5 -40.5q47 0 85.5 28.5t73.5 81.5l46 305q-50 24 -108 24q-71 0 -118.5 -43.5zM256 684q-32 31 -32 81l41 6q9 -71 76 -71q36 0 63 19t41 54l38 -12q-13 -49 -52.5 -78.5t-90.5 -29.5q-52 0 -84 31z" />
    <glyph glyph-name="Gdotaccent" unicode="&#x120;" horiz-adv-x="616" 
d="M506 679q44 -17 83 -52l-40 -36q-32 29 -65 41.5t-78 12.5q-90 0 -151.5 -58t-91.5 -148t-30 -186q0 -107 47.5 -160t135.5 -53q79 0 147 37l35 242h-132l-1 50h199l-44 -322q-98 -58 -210 -58t-175.5 69.5t-63.5 201.5q0 106 37.5 206.5t113.5 165t184 64.5
q56 0 100 -17zM463 868.5q11 -10.5 11 -27.5q0 -20 -12.5 -32.5t-33.5 -12.5q-18 0 -29 11t-11 28q0 19 13 31.5t33 12.5q18 0 29 -10.5z" />
    <glyph glyph-name="gdotaccent" unicode="&#x121;" horiz-adv-x="565" 
d="M415.5 523.5q38.5 -10.5 81.5 -32.5l-71 -487q-31 -211 -219 -211q-90 0 -173 49l23 44q78 -43 148 -43q142 0 164 160l12 87q-30 -42 -70.5 -66t-86.5 -24q-79 0 -122.5 54.5t-43.5 147.5q0 78 28.5 154t89 127t152.5 51q49 0 87.5 -10.5zM210.5 443.5
q-47.5 -43.5 -69.5 -109t-22 -132.5q0 -74 29.5 -113.5t83.5 -40.5q47 0 85.5 28.5t73.5 81.5l46 305q-50 24 -108 24q-71 0 -118.5 -43.5zM378.5 742.5q10.5 -10.5 10.5 -27.5q0 -19 -12.5 -32t-33.5 -14q-18 1 -29 11.5t-11 27.5q0 20 13 32.5t33 12.5q19 0 29.5 -10.5z
" />
    <glyph glyph-name="Gcommaaccent" unicode="&#x122;" horiz-adv-x="616" 
d="M506 679q44 -17 83 -52l-40 -36q-32 29 -65 41.5t-78 12.5q-90 0 -151.5 -58t-91.5 -148t-30 -186q0 -107 47.5 -160t135.5 -53q79 0 147 37l35 242h-132l-1 50h199l-44 -322q-98 -58 -210 -58t-175.5 69.5t-63.5 201.5q0 106 37.5 206.5t113.5 165t184 64.5
q56 0 100 -17zM316 -96.5q11 -11.5 11 -27.5q0 -15 -6 -28.5t-25 -43.5l-52 -83h-36l50 115q-8 6 -13 15t-5 19q0 19 13.5 32t33.5 13q18 0 29 -11.5z" />
    <glyph glyph-name="gcommaaccent" unicode="&#x123;" horiz-adv-x="565" 
d="M415.5 523.5q38.5 -10.5 81.5 -32.5l-71 -487q-31 -211 -219 -211q-90 0 -173 49l23 44q78 -43 148 -43q142 0 164 160l12 87q-30 -42 -70.5 -66t-86.5 -24q-79 0 -122.5 54.5t-43.5 147.5q0 78 28.5 154t89 127t152.5 51q49 0 87.5 -10.5zM210.5 443.5
q-47.5 -43.5 -69.5 -109t-22 -132.5q0 -74 29.5 -113.5t83.5 -40.5q47 0 85.5 28.5t73.5 81.5l46 305q-50 24 -108 24q-71 0 -118.5 -43.5zM305 619.5q-11 11.5 -11 27.5q0 14 6 27.5t25 43.5l52 84h35l-49 -115q8 -6 13 -15t5 -19q0 -19 -13.5 -32t-33.5 -13
q-18 0 -29 11.5z" />
    <glyph glyph-name="Hcircumflex" unicode="&#x124;" horiz-adv-x="667" 
d="M180 335l-47 -335h-59l96 685h59l-42 -299h328l42 299h59l-96 -685h-60l48 335h-328zM290 762l-25 30l143 102h36l115 -102l-27 -30l-111 80z" />
    <glyph glyph-name="hcircumflex" unicode="&#x125;" horiz-adv-x="581" 
d="M467.5 501.5q31.5 -32.5 31.5 -92.5q0 -17 -3 -37l-52 -372h-58l52 367q3 21 3 36q0 44 -20.5 63t-61.5 19q-52 0 -99.5 -46.5t-89.5 -125.5l-44 -313h-57l104 736l58 7l-50 -348q37 65 88 102t107 37q60 0 91.5 -32.5zM258 813l-25 30l143 102h36l115 -102l-27 -30
l-111 80z" />
    <glyph glyph-name="Hbar" unicode="&#x126;" horiz-adv-x="666" 
d="M593 513l-72 -513h-59l47 335h-328l-47 -335h-59l72 513h-64l6 45h65l17 127h60l-18 -127h327l18 127h59l-17 -127h63l-7 -45h-63zM207 513l-19 -127h328l18 127h-327z" />
    <glyph glyph-name="hbar" unicode="&#x127;" horiz-adv-x="587" 
d="M474.5 501.5q31.5 -32.5 31.5 -92.5q0 -17 -3 -37l-53 -372h-57l52 368q2 12 2 34q0 44 -20.5 63.5t-60.5 19.5q-97 0 -190 -172l-43 -313h-58l87 616h-75l7 47h75l10 73l58 7l-11 -80h170l-14 -47h-163l-31 -221q37 66 88 102.5t107 36.5q60 0 91.5 -32.5z" />
    <glyph glyph-name="Itilde" unicode="&#x128;" horiz-adv-x="281" 
d="M74 0l96 685h60l-96 -685h-60zM243 800q-16 7 -34 20q-15 10 -23.5 14t-18.5 4q-20 0 -33 -9t-31 -32l-33 21q45 66 98 66q17 0 30.5 -6t31.5 -18q14 -10 25 -15.5t23 -5.5q16 0 30.5 10.5t32.5 34.5l34 -22q-44 -69 -94 -69q-22 0 -38 7z" />
    <glyph glyph-name="itilde" unicode="&#x129;" horiz-adv-x="269" 
d="M69 0l74 523h58l-74 -523h-58zM220 674q-16 7 -35 20q-2 1 -10.5 7t-16 8.5t-14.5 2.5q-20 0 -32.5 -9t-32.5 -33l-33 22q45 66 98 66q17 0 30.5 -6t31.5 -18q15 -11 26 -16t22 -5q16 0 30.5 10.5t32.5 34.5l34 -22q-44 -70 -94 -70q-21 1 -37 8z" />
    <glyph glyph-name="Imacron" unicode="&#x12a;" horiz-adv-x="281" 
d="M74 0l96 685h60l-96 -685h-60zM103 849h240l-7 -47h-240z" />
    <glyph glyph-name="imacron" unicode="&#x12b;" horiz-adv-x="269" 
d="M69 0l74 523h58l-74 -523h-58zM80 723h240l-7 -47h-240z" />
    <glyph glyph-name="Ibreve" unicode="&#x12c;" horiz-adv-x="281" 
d="M74 0l96 685h60l-96 -685h-60zM123.5 794q-32.5 29 -33.5 73l39 5q6 -28 26.5 -44t53.5 -16q35 0 61 17t40 46l39 -12q-12 -43 -51.5 -70.5t-89.5 -27.5q-52 0 -84.5 29z" />
    <glyph glyph-name="ibreve" unicode="&#x12d;" horiz-adv-x="269" 
d="M69 0l74 523h58l-74 -523h-58zM108 684q-32 31 -32 81l41 6q9 -71 76 -71q36 0 63 19t41 54l38 -12q-13 -49 -52.5 -78.5t-90.5 -29.5q-52 0 -84 31z" />
    <glyph glyph-name="Iogonek" unicode="&#x12e;" horiz-adv-x="281" 
d="M27 -61q-32 -29 -32 -64q0 -44 55 -44q24 0 59 6l-10 -49q-30 -6 -57 -6q-49 0 -75 23t-26 59q0 45 31 80t103 64l95 677h60l-96 -683l1 -2q-76 -32 -108 -61z" />
    <glyph glyph-name="iogonek" unicode="&#x12f;" horiz-adv-x="269" 
d="M230 742.5q11 -10.5 11 -27.5q0 -20 -12.5 -32.5t-33.5 -12.5q-18 0 -29 10.5t-11 27.5q0 20 13 32.5t33 12.5q18 0 29 -10.5zM127 2l1 -2q-76 -32 -108.5 -61t-32.5 -63q0 -45 56 -45q26 0 58 7l-10 -49q-30 -6 -57 -6q-49 0 -75 22.5t-26 58.5q0 46 32 81t105 64
l73 514h58z" />
    <glyph glyph-name="Idotaccent" unicode="&#x130;" horiz-adv-x="281" 
d="M74 0l96 685h60l-96 -685h-60zM253 868.5q11 -10.5 11 -27.5q0 -20 -12.5 -32.5t-33.5 -12.5q-18 0 -29 11t-11 28q0 19 13 31.5t33 12.5q18 0 29 -10.5z" />
    <glyph glyph-name="dotlessi" unicode="&#x131;" horiz-adv-x="269" 
d="M69 0l74 523h58l-74 -523h-58z" />
    <glyph glyph-name="IJ" unicode="&#x132;" horiz-adv-x="570" 
d="M74 0l96 685h60l-96 -685h-60zM411.5 -9q-20.5 -38 -56.5 -62.5t-97 -47.5l-13 45q49 20 76 41.5t40.5 51.5t20.5 78l83 588h59l-83 -595q-9 -61 -29.5 -99z" />
    <glyph glyph-name="ij" unicode="&#x133;" horiz-adv-x="536" 
d="M166 680.5q-11 10.5 -11 27.5q0 20 13 32.5t33 12.5q18 0 29 -10.5t11 -27.5q0 -20 -12.5 -32.5t-33.5 -12.5q-18 0 -29 10.5zM201 523l-74 -523h-58l74 523h58zM396 17q-9 -68 -29 -108t-51.5 -64t-87.5 -49l-17 44q41 19 65 38t39.5 52t23.5 89l72 504h57z" />
    <glyph glyph-name="Jcircumflex" unicode="&#x134;" horiz-adv-x="289" 
d="M130.5 -9q-20.5 -38 -56.5 -62.5t-97 -47.5l-13 45q49 20 76 41.5t40.5 51.5t20.5 78l83 588h59l-83 -595q-9 -61 -29.5 -99zM110 762l-25 30l143 102h36l115 -102l-27 -30l-111 80z" />
    <glyph glyph-name="jcircumflex" unicode="&#x135;" horiz-adv-x="267" 
d="M98 -91q-20 -40 -51.5 -64t-87.5 -49l-17 44q41 19 65 38t39.5 52t23.5 89l71 504h58l-72 -506q-9 -68 -29 -108zM190 779h35l114 -105l-28 -31l-109 85l-131 -85l-25 31z" />
    <glyph glyph-name="Kcommaaccent" unicode="&#x136;" horiz-adv-x="545" 
d="M74 0l96 685h59l-96 -685h-59zM508 0h-71l-248 367l327 318h72l-330 -320zM283 -96.5q11 -11.5 11 -27.5q0 -15 -6 -28.5t-25 -43.5l-52 -83h-36l50 115q-8 6 -13 15t-5 19q0 19 13.5 32t33.5 13q18 0 29 -11.5z" />
    <glyph glyph-name="kcommaaccent" unicode="&#x137;" horiz-adv-x="523" 
d="M272.5 500q49.5 34 104.5 34q53 0 86.5 -30t33.5 -80q0 -65 -44 -113t-129 -75l119 -236h-64l-125 254q92 26 137 66t45 97q0 33 -18 51.5t-54 18.5q-54 0 -104.5 -47.5t-90.5 -134.5l-43 -305h-57l104 736l58 7l-49 -348q41 71 90.5 105zM261 -96.5q11 -11.5 11 -27.5
q0 -14 -6 -27.5t-25 -43.5l-52 -84h-35l49 115q-8 6 -13 15t-5 19q0 19 13.5 32t33.5 13q18 0 29 -11.5z" />
    <glyph glyph-name="kgreenlandic" unicode="&#x138;" horiz-adv-x="484" 
d="M69 0l74 523h57l-74 -523h-57zM439 0h-67l-202 276l250 247h71l-254 -248z" />
    <glyph glyph-name="Lacute" unicode="&#x139;" horiz-adv-x="472" 
d="M426 54l-16 -54h-336l96 685h59l-88 -631h285zM121 758l-11 34l199 96l20 -52z" />
    <glyph glyph-name="lacute" unicode="&#x13a;" horiz-adv-x="281" 
d="M132 73q0 -18 8 -26.5t26 -8.5q17 0 38 8l13 -43q-31 -14 -61 -14q-39 0 -60 20.5t-21 61.5q0 8 2 26l90 639l58 7l-92 -655q-1 -5 -1 -15zM99 808l-11 34l199 96l20 -52z" />
    <glyph glyph-name="Lcommaaccent" unicode="&#x13b;" horiz-adv-x="472" 
d="M426 54l-16 -54h-336l96 685h59l-88 -631h285zM259 -96.5q11 -11.5 11 -27.5q0 -15 -6 -28.5t-25 -43.5l-52 -83h-36l50 115q-8 6 -13 15t-5 19q0 19 13.5 32t33.5 13q18 0 29 -11.5z" />
    <glyph glyph-name="lcommaaccent" unicode="&#x13c;" horiz-adv-x="281" 
d="M132 73q0 -18 8 -26.5t26 -8.5q17 0 38 8l13 -43q-31 -14 -61 -14q-39 0 -60 20.5t-21 61.5q0 8 2 26l90 639l58 7l-92 -655q-1 -5 -1 -15zM118 -96.5q11 -11.5 11 -27.5q0 -14 -6 -27.5t-25 -43.5l-52 -84h-35l49 115q-8 6 -13 15t-5 19q0 19 13.5 32t33.5 13
q18 0 29 -11.5z" />
    <glyph glyph-name="Lcaron" unicode="&#x13d;" horiz-adv-x="472" 
d="M426 54l-16 -54h-336l96 685h59l-88 -631h285zM312 521l-35 5l40 165l55 -6z" />
    <glyph glyph-name="lcaron" unicode="&#x13e;" horiz-adv-x="281" 
d="M132 73q0 -18 8 -26.5t26 -8.5q17 0 38 8l13 -43q-31 -14 -61 -14q-39 0 -60 20.5t-21 61.5q0 8 2 26l90 639l58 7l-92 -655q-1 -5 -1 -15zM301 572l-35 5l40 165l55 -6z" />
    <glyph glyph-name="Ldot" unicode="&#x13f;" horiz-adv-x="472" 
d="M426 54l-16 -54h-336l96 685h59l-88 -631h285zM414.5 400.5q10.5 -10.5 10.5 -27.5q0 -19 -12.5 -32t-33.5 -14q-18 1 -29 11.5t-11 27.5q0 20 13 32.5t33 12.5q19 0 29.5 -10.5z" />
    <glyph glyph-name="ldot" unicode="&#x140;" horiz-adv-x="301" 
d="M94 73q0 -18 8 -26.5t26 -8.5q17 0 38 8l13 -43q-31 -14 -61 -14q-39 0 -60 20.5t-21 61.5q0 8 2 26l90 639l58 7l-92 -655q-1 -5 -1 -15zM285.5 407.5q10.5 -10.5 10.5 -27.5q0 -19 -12.5 -32t-33.5 -14q-18 1 -29 11.5t-11 27.5q0 20 13 32.5t33 12.5q19 0 29.5 -10.5z
" />
    <glyph glyph-name="Lslash" unicode="&#x141;" horiz-adv-x="482" 
d="M84 0l40 280l-67 -39l-19 39l94 55l49 350h59l-44 -313l197 113l19 -39l-223 -129l-37 -263h285l-16 -54h-337z" />
    <glyph glyph-name="lslash" unicode="&#x142;" horiz-adv-x="289" 
d="M204 46l13 -43q-31 -14 -61 -14q-39 0 -60 20.5t-21 61.5q0 8 2 26l32 229l-55 -31l-16 42l79 45l50 354l58 7l-46 -326l102 59l16 -43l-126 -71l-38 -274q-1 -5 -1 -15q0 -18 8 -26.5t26 -8.5q17 0 38 8z" />
    <glyph glyph-name="Nacute" unicode="&#x143;" horiz-adv-x="670" 
d="M446 0l-237 631q-1 -45 -6.5 -100t-18.5 -150l-54 -381h-56l96 685h77l237 -630q3 89 20 215l58 415h57l-97 -685h-76zM324 758l-11 34l199 96l20 -52z" />
    <glyph glyph-name="nacute" unicode="&#x144;" horiz-adv-x="581" 
d="M467.5 501.5q31.5 -32.5 31.5 -92.5q0 -17 -3 -37l-52 -372h-58l52 367q3 21 3 36q0 44 -20.5 63t-61.5 19q-51 0 -99.5 -47t-89.5 -125l-44 -313h-57l74 523h48l-13 -130q40 66 91.5 103.5t106.5 37.5q60 0 91.5 -32.5zM252 645l-14 34l201 103l19 -52z" />
    <glyph glyph-name="Ncommaaccent" unicode="&#x145;" horiz-adv-x="670" 
d="M446 0l-237 631q-1 -45 -6.5 -100t-18.5 -150l-54 -381h-56l96 685h77l237 -630q3 89 20 215l58 415h57l-97 -685h-76zM314 -96.5q11 -11.5 11 -27.5q0 -15 -6 -28.5t-25 -43.5l-52 -83h-36l50 115q-8 6 -13 15t-5 19q0 19 13.5 32t33.5 13q18 0 29 -11.5z" />
    <glyph glyph-name="ncommaaccent" unicode="&#x146;" horiz-adv-x="581" 
d="M467.5 501.5q31.5 -32.5 31.5 -92.5q0 -17 -3 -37l-52 -372h-58l52 367q3 21 3 36q0 44 -20.5 63t-61.5 19q-51 0 -99.5 -47t-89.5 -125l-44 -313h-57l74 523h48l-13 -130q40 66 91.5 103.5t106.5 37.5q60 0 91.5 -32.5zM268 -96.5q11 -11.5 11 -27.5q0 -14 -6 -27.5
t-25 -43.5l-52 -84h-35l49 115q-8 6 -13 15t-5 19q0 19 13.5 32t33.5 13q18 0 29 -11.5z" />
    <glyph glyph-name="Ncaron" unicode="&#x147;" horiz-adv-x="670" 
d="M446 0l-237 631q-1 -45 -6.5 -100t-18.5 -150l-54 -381h-56l96 685h77l237 -630q3 89 20 215l58 415h57l-97 -685h-76zM427 756h-35l-116 101l28 30l110 -79l132 80l23 -31z" />
    <glyph glyph-name="ncaron" unicode="&#x148;" horiz-adv-x="581" 
d="M467.5 501.5q31.5 -32.5 31.5 -92.5q0 -17 -3 -37l-52 -372h-58l52 367q3 21 3 36q0 44 -20.5 63t-61.5 19q-51 0 -99.5 -47t-89.5 -125l-44 -313h-57l74 523h48l-13 -130q40 66 91.5 103.5t106.5 37.5q60 0 91.5 -32.5zM370 634h-36l-114 106l27 30l110 -84l133 84
l23 -30z" />
    <glyph glyph-name="napostrophe" unicode="&#x149;" horiz-adv-x="581" 
d="M467.5 501.5q31.5 -32.5 31.5 -92.5q0 -17 -3 -37l-52 -372h-58l52 367q3 21 3 36q0 44 -20.5 63t-61.5 19q-51 0 -99.5 -47t-89.5 -125l-44 -313h-57l74 523h48l-13 -130q40 66 91.5 103.5t106.5 37.5q60 0 91.5 -32.5zM242.5 731.5q11.5 -12.5 9.5 -30.5
q-1 -12 -6.5 -24.5t-22.5 -42.5l-50 -88h-36l47 119q-19 14 -19 34q0 19 13 32t33 13t31.5 -12.5z" />
    <glyph glyph-name="Eng" unicode="&#x14a;" horiz-adv-x="670" 
d="M493.5 -98q-19.5 -37 -51 -60t-86.5 -46l-15 44q41 19 65 36t40 46t25 78h-25l-237 631q-1 -45 -6.5 -100t-18.5 -150l-54 -381h-56l96 685h77l237 -630q3 89 20 215l58 415h57l-97 -685q-9 -61 -28.5 -98z" />
    <glyph glyph-name="eng" unicode="&#x14b;" horiz-adv-x="581" 
d="M467 501q32 -33 32 -93q0 -16 -3 -36l-51 -356q-10 -68 -29.5 -107.5t-51 -63.5t-87.5 -49l-17 44q42 19 66 37.5t39.5 50.5t22.5 86l50 353q3 21 3 36q0 44 -20.5 63t-61.5 19q-50 0 -99 -47t-90 -125l-44 -313h-57l74 523h48l-13 -133q38 66 90.5 105t107.5 39
q59 0 91 -33z" />
    <glyph glyph-name="Omacron" unicode="&#x14c;" horiz-adv-x="688" 
d="M577 625.5q63 -70.5 63 -201.5q0 -100 -33 -200t-107.5 -167.5t-190.5 -67.5q-110 0 -174 71t-64 202q0 97 34 197t109 168.5t190 68.5q110 0 173 -70.5zM245 583.5q-60 -61.5 -86 -150.5t-26 -177q0 -107 47 -161.5t130 -54.5q98 0 158 62t85 151.5t25 178.5
q0 106 -46 159.5t-131 53.5q-96 0 -156 -61.5zM300 849h240l-7 -47h-240z" />
    <glyph glyph-name="omacron" unicode="&#x14d;" horiz-adv-x="569" 
d="M460.5 479q49.5 -55 49.5 -155q0 -74 -26 -151t-84.5 -130.5t-150.5 -53.5q-91 0 -140.5 56t-49.5 156q0 75 26.5 151.5t85 129t150.5 52.5q90 0 139.5 -55zM202 439.5q-45 -46.5 -64 -113.5t-19 -130q0 -78 33.5 -118t97.5 -40q71 0 115.5 46t64 113t19.5 131
q0 78 -33.5 118t-96.5 40q-72 0 -117 -46.5zM229 723h240l-7 -47h-240z" />
    <glyph glyph-name="Obreve" unicode="&#x14e;" horiz-adv-x="688" 
d="M577 625.5q63 -70.5 63 -201.5q0 -100 -33 -200t-107.5 -167.5t-190.5 -67.5q-110 0 -174 71t-64 202q0 97 34 197t109 168.5t190 68.5q110 0 173 -70.5zM245 583.5q-60 -61.5 -86 -150.5t-26 -177q0 -107 47 -161.5t130 -54.5q98 0 158 62t85 151.5t25 178.5
q0 106 -46 159.5t-131 53.5q-96 0 -156 -61.5zM319.5 794q-32.5 29 -33.5 73l39 5q6 -28 26.5 -44t53.5 -16q35 0 61 17t40 46l39 -12q-12 -43 -51.5 -70.5t-89.5 -27.5q-52 0 -84.5 29z" />
    <glyph glyph-name="obreve" unicode="&#x14f;" horiz-adv-x="569" 
d="M460.5 479q49.5 -55 49.5 -155q0 -74 -26 -151t-84.5 -130.5t-150.5 -53.5q-91 0 -140.5 56t-49.5 156q0 75 26.5 151.5t85 129t150.5 52.5q90 0 139.5 -55zM202 439.5q-45 -46.5 -64 -113.5t-19 -130q0 -78 33.5 -118t97.5 -40q71 0 115.5 46t64 113t19.5 131
q0 78 -33.5 118t-96.5 40q-72 0 -117 -46.5zM257 684q-32 31 -32 81l41 6q9 -71 76 -71q36 0 63 19t41 54l38 -12q-13 -49 -52.5 -78.5t-90.5 -29.5q-52 0 -84 31z" />
    <glyph glyph-name="Ohungarumlaut" unicode="&#x150;" horiz-adv-x="688" 
d="M577 625.5q63 -70.5 63 -201.5q0 -100 -33 -200t-107.5 -167.5t-190.5 -67.5q-110 0 -174 71t-64 202q0 97 34 197t109 168.5t190 68.5q110 0 173 -70.5zM245 583.5q-60 -61.5 -86 -150.5t-26 -177q0 -107 47 -161.5t130 -54.5q98 0 158 62t85 151.5t25 178.5
q0 106 -46 159.5t-131 53.5q-96 0 -156 -61.5zM443 768l-36 18l99 151l49 -27zM323 773l-36 17l90 147l49 -27z" />
    <glyph glyph-name="ohungarumlaut" unicode="&#x151;" horiz-adv-x="569" 
d="M460.5 479q49.5 -55 49.5 -155q0 -74 -26 -151t-84.5 -130.5t-150.5 -53.5q-91 0 -140.5 56t-49.5 156q0 75 26.5 151.5t85 129t150.5 52.5q90 0 139.5 -55zM202 439.5q-45 -46.5 -64 -113.5t-19 -130q0 -78 33.5 -118t97.5 -40q71 0 115.5 46t64 113t19.5 131
q0 78 -33.5 118t-96.5 40q-72 0 -117 -46.5zM412 642l-36 18l99 151l49 -27zM292 647l-36 17l90 147l49 -28z" />
    <glyph glyph-name="OE" unicode="&#x152;" horiz-adv-x="872" 
d="M540 635q38 -32 58.5 -86t20.5 -126q0 -28 -1 -43h167l-6 -50h-167q-13 -85 -50 -159.5t-100 -120.5h329l-8 -50h-415q-36 -11 -71 -11q-67 0 -118 31.5t-79.5 93t-28.5 147.5q0 95 34 196t106 170t180 69q36 0 69 -11h413l-14 -50h-319zM514.5 592q-44.5 53 -123.5 53
q-90 0 -148 -62.5t-84 -152.5t-26 -175q0 -106 45 -160.5t122 -54.5q92 0 150.5 63.5t83.5 154t25 177.5q0 104 -44.5 157z" />
    <glyph glyph-name="oe" unicode="&#x153;" horiz-adv-x="900" 
d="M767.5 266q-94.5 -47 -267.5 -60v-6q0 -82 35.5 -121.5t98.5 -39.5q41 0 75 13t72 40l27 -41q-42 -31 -85.5 -46.5t-92.5 -15.5q-67 0 -111 33.5t-64 95.5q-71 -129 -206 -129q-91 0 -140.5 56t-49.5 156q0 75 26.5 151.5t85 129t150.5 52.5q67 0 111.5 -33.5t63.5 -94.5
q69 128 207 128q74 0 116.5 -35.5t42.5 -90.5q0 -95 -94.5 -142zM564.5 417q-49.5 -69 -61.5 -166q150 12 224 49t74 106q0 34 -25 57t-74 23q-88 0 -137.5 -69zM365.5 84q44.5 46 64 113t19.5 131q0 78 -33.5 118t-96.5 40q-72 0 -117 -46.5t-64 -113.5t-19 -130
q0 -78 33.5 -118t97.5 -40q71 0 115.5 46z" />
    <glyph glyph-name="Racute" unicode="&#x154;" horiz-adv-x="587" 
d="M510.5 397q-42.5 -58 -137.5 -81l144 -316h-66l-136 307h-139l-43 -307h-59l96 685h164q112 0 165.5 -39t53.5 -118q0 -73 -42.5 -131zM446.5 407.5q44.5 51.5 44.5 122.5q0 55 -37 80.5t-120 25.5h-112l-39 -280h118q101 0 145.5 51.5zM273 758l-11 34l199 96l20 -52z
" />
    <glyph glyph-name="racute" unicode="&#x155;" horiz-adv-x="371" 
d="M395 527l-16 -54q-18 5 -42 5q-54 0 -94 -45.5t-74 -134.5l-43 -298h-57l74 523h49l-14 -127q30 67 72 102.5t95 35.5q29 0 50 -7zM188 645l-14 34l201 103l19 -52z" />
    <glyph glyph-name="Rcommaaccent" unicode="&#x156;" horiz-adv-x="587" 
d="M510.5 397q-42.5 -58 -137.5 -81l144 -316h-66l-136 307h-139l-43 -307h-59l96 685h164q112 0 165.5 -39t53.5 -118q0 -73 -42.5 -131zM446.5 407.5q44.5 51.5 44.5 122.5q0 55 -37 80.5t-120 25.5h-112l-39 -280h118q101 0 145.5 51.5zM283 -96.5q11 -11.5 11 -27.5
q0 -15 -6 -28.5t-25 -43.5l-52 -83h-36l50 115q-8 6 -13 15t-5 19q0 19 13.5 32t33.5 13q18 0 29 -11.5z" />
    <glyph glyph-name="rcommaaccent" unicode="&#x157;" horiz-adv-x="371" 
d="M395 527l-16 -54q-18 5 -42 5q-54 0 -94 -45.5t-74 -134.5l-43 -298h-57l74 523h49l-14 -127q30 67 72 102.5t95 35.5q29 0 50 -7zM112 -96.5q11 -11.5 11 -27.5q0 -14 -6 -27.5t-25 -43.5l-52 -84h-35l49 115q-8 6 -13 15t-5 19q0 19 13.5 32t33.5 13q18 0 29 -11.5z
" />
    <glyph glyph-name="Rcaron" unicode="&#x158;" horiz-adv-x="587" 
d="M510.5 397q-42.5 -58 -137.5 -81l144 -316h-66l-136 307h-139l-43 -307h-59l96 685h164q112 0 165.5 -39t53.5 -118q0 -73 -42.5 -131zM446.5 407.5q44.5 51.5 44.5 122.5q0 55 -37 80.5t-120 25.5h-112l-39 -280h118q101 0 145.5 51.5zM375 756h-35l-116 101l28 30
l110 -79l132 80l23 -31z" />
    <glyph glyph-name="rcaron" unicode="&#x159;" horiz-adv-x="371" 
d="M395 527l-16 -54q-18 5 -42 5q-54 0 -94 -45.5t-74 -134.5l-43 -298h-57l74 523h49l-14 -127q30 67 72 102.5t95 35.5q29 0 50 -7zM306 634h-36l-114 106l27 30l110 -84l133 84l23 -30z" />
    <glyph glyph-name="Sacute" unicode="&#x15a;" horiz-adv-x="536" 
d="M429 676.5q45 -19.5 82 -57.5l-38 -36q-32 33 -67.5 47.5t-81.5 14.5q-70 0 -116 -35.5t-46 -92.5q0 -46 30.5 -74t107.5 -54q87 -27 131 -69t44 -116q0 -50 -26 -99.5t-83 -82.5t-145 -33q-68 0 -118.5 23t-89.5 65l39 36q33 -36 73.5 -54.5t96.5 -18.5q61 0 104.5 22.5
t65.5 59.5t22 80q0 51 -32 82.5t-108 57.5q-91 28 -131.5 68t-40.5 105q0 42 24.5 84t74.5 69.5t123 27.5q60 0 105 -19.5zM250 758l-11 34l199 96l20 -52z" />
    <glyph glyph-name="sacute" unicode="&#x15b;" horiz-adv-x="461" 
d="M421 475l-32 -38q-55 49 -127 49q-58 0 -92 -24t-34 -65q0 -34 25 -55.5t89 -40.5q78 -24 112.5 -59.5t34.5 -94.5q0 -71 -55 -114.5t-148 -43.5q-61 0 -105.5 19t-79.5 52l36 37q62 -59 149 -59q68 0 105.5 29t37.5 77q0 41 -25.5 65t-94.5 46q-77 25 -108.5 57.5
t-31.5 82.5q0 37 22.5 69t64.5 51t98 19q91 0 159 -59zM189 645l-14 34l201 103l19 -52z" />
    <glyph glyph-name="Scircumflex" unicode="&#x15c;" horiz-adv-x="536" 
d="M429 676.5q45 -19.5 82 -57.5l-38 -36q-32 33 -67.5 47.5t-81.5 14.5q-70 0 -116 -35.5t-46 -92.5q0 -46 30.5 -74t107.5 -54q87 -27 131 -69t44 -116q0 -50 -26 -99.5t-83 -82.5t-145 -33q-68 0 -118.5 23t-89.5 65l39 36q33 -36 73.5 -54.5t96.5 -18.5q61 0 104.5 22.5
t65.5 59.5t22 80q0 51 -32 82.5t-108 57.5q-91 28 -131.5 68t-40.5 105q0 42 24.5 84t74.5 69.5t123 27.5q60 0 105 -19.5zM227 762l-25 30l143 102h36l115 -102l-27 -30l-111 80z" />
    <glyph glyph-name="scircumflex" unicode="&#x15d;" horiz-adv-x="461" 
d="M421 475l-32 -38q-55 49 -127 49q-58 0 -92 -24t-34 -65q0 -34 25 -55.5t89 -40.5q78 -24 112.5 -59.5t34.5 -94.5q0 -71 -55 -114.5t-148 -43.5q-61 0 -105.5 19t-79.5 52l36 37q62 -59 149 -59q68 0 105.5 29t37.5 77q0 41 -25.5 65t-94.5 46q-77 25 -108.5 57.5
t-31.5 82.5q0 37 22.5 69t64.5 51t98 19q91 0 159 -59zM289 779h35l114 -105l-28 -31l-109 85l-131 -85l-25 31z" />
    <glyph glyph-name="Scedilla" unicode="&#x15e;" horiz-adv-x="536" 
d="M431 320q44 -42 44 -116q0 -50 -25.5 -99t-82 -82.5t-143.5 -33.5l-8 -53q42 -4 62.5 -22t20.5 -47q0 -39 -32 -67t-83 -28q-46 0 -79 23l22 35q25 -16 56 -16q26 0 45 13.5t19 36.5q0 21 -18 30t-64 10l19 87q-102 11 -171 86l39 36q33 -36 73.5 -54.5t96.5 -18.5
q61 0 104.5 22.5t65.5 59.5t22 80q0 51 -32 82.5t-108 57.5q-91 28 -131.5 68t-40.5 105q0 42 24.5 84t74.5 69.5t123 27.5q60 0 105 -19.5t82 -57.5l-38 -36q-32 33 -67.5 47.5t-81.5 14.5q-70 0 -116 -35.5t-46 -92.5q0 -46 30.5 -74t107.5 -54q87 -27 131 -69z" />
    <glyph glyph-name="scedilla" unicode="&#x15f;" horiz-adv-x="461" 
d="M362.5 241.5q34.5 -35.5 34.5 -94.5q0 -68 -51 -111t-139 -47l-8 -53q83 -6 83 -69q0 -39 -32 -66.5t-83 -27.5q-47 0 -79 23l23 34q22 -15 55 -15q26 -1 45.5 12.5t19.5 36.5q0 21 -18 30.5t-64 10.5l18 85q-92 8 -158 70l36 37q62 -59 149 -59q68 0 105.5 29t37.5 77
q0 41 -25.5 65t-94.5 46q-77 25 -108.5 57.5t-31.5 82.5q0 37 22.5 69t64.5 51t98 19q91 0 159 -59l-32 -38q-55 49 -127 49q-58 0 -92 -24t-34 -65q0 -34 25 -55.5t89 -40.5q78 -24 112.5 -59.5z" />
    <glyph glyph-name="Scaron" unicode="&#x160;" horiz-adv-x="536" 
d="M429 676.5q45 -19.5 82 -57.5l-38 -36q-32 33 -67.5 47.5t-81.5 14.5q-70 0 -116 -35.5t-46 -92.5q0 -46 30.5 -74t107.5 -54q87 -27 131 -69t44 -116q0 -50 -26 -99.5t-83 -82.5t-145 -33q-68 0 -118.5 23t-89.5 65l39 36q33 -36 73.5 -54.5t96.5 -18.5q61 0 104.5 22.5
t65.5 59.5t22 80q0 51 -32 82.5t-108 57.5q-91 28 -131.5 68t-40.5 105q0 42 24.5 84t74.5 69.5t123 27.5q60 0 105 -19.5zM353 756h-35l-116 101l28 30l110 -79l132 80l23 -31z" />
    <glyph glyph-name="scaron" unicode="&#x161;" horiz-adv-x="461" 
d="M421 475l-32 -38q-55 49 -127 49q-58 0 -92 -24t-34 -65q0 -34 25 -55.5t89 -40.5q78 -24 112.5 -59.5t34.5 -94.5q0 -71 -55 -114.5t-148 -43.5q-61 0 -105.5 19t-79.5 52l36 37q62 -59 149 -59q68 0 105.5 29t37.5 77q0 41 -25.5 65t-94.5 46q-77 25 -108.5 57.5
t-31.5 82.5q0 37 22.5 69t64.5 51t98 19q91 0 159 -59zM307 634h-36l-114 106l27 30l110 -84l133 84l23 -30z" />
    <glyph glyph-name="Tcedilla" unicode="&#x162;" horiz-adv-x="492" 
d="M527 632h-199l-89 -632l-10 -64q42 -4 62 -22t20 -47q0 -39 -32 -67t-82 -28q-46 0 -79 23l22 35q25 -16 56 -16q26 0 45.5 13.5t19.5 36.5q0 21 -18.5 30t-64.5 10l21 96h-20l89 632h-202l8 53h468z" />
    <glyph glyph-name="tcedilla" unicode="&#x163;" horiz-adv-x="339" 
d="M142 102q0 -32 15 -47.5t48 -15.5q37 0 84 25l20 -43q-53 -31 -107 -32l-9 -53q83 -7 83 -69q0 -39 -32 -67t-82 -28q-46 0 -79 23l22 35q25 -16 56 -16q26 0 45.5 13.5t19.5 36.5q0 21 -18.5 30t-64.5 10l20 88q-38 8 -58.5 35.5t-20.5 71.5q0 9 2 29l49 348h-88l7 47
h89l29 127l46 5l-19 -132h134l-13 -47h-127l-49 -347q-2 -20 -2 -27z" />
    <glyph glyph-name="Tcaron" unicode="&#x164;" horiz-adv-x="492" 
d="M328 632l-89 -632h-60l89 632h-202l8 53h468l-15 -53h-199zM324 756h-35l-116 101l28 30l110 -79l132 80l23 -31z" />
    <glyph glyph-name="tcaron" unicode="&#x165;" horiz-adv-x="339" 
d="M142 102q0 -32 15 -47.5t48 -15.5q37 0 84 25l20 -43q-56 -32 -113 -32q-53 0 -82.5 28.5t-29.5 81.5q0 9 2 29l49 348h-88l7 47h89l29 127l46 5l-19 -132h134l-13 -47h-127l-49 -347q-2 -20 -2 -27zM309 575l-35 5l40 165l55 -6z" />
    <glyph glyph-name="Tbar" unicode="&#x166;" horiz-adv-x="498" 
d="M418 385l-6 -47h-125l-48 -338h-60l48 338h-122l7 47h121l35 247h-202l8 53h468l-15 -53h-199l-35 -247h125z" />
    <glyph glyph-name="tbar" unicode="&#x167;" horiz-adv-x="339" 
d="M175 350h127l-14 -47h-120l-24 -174q-2 -20 -2 -27q0 -32 15 -47.5t48 -15.5q37 0 84 25l20 -43q-56 -32 -113 -32q-53 0 -82.5 28.5t-29.5 81.5q0 9 2 29l25 175h-79l6 47h79l18 126h-88l7 47h89l29 127l46 5l-19 -132h134l-13 -47h-127z" />
    <glyph glyph-name="Utilde" unicode="&#x168;" horiz-adv-x="649" 
d="M462 49.5q-65 -60.5 -173 -60.5q-98 0 -148 49.5t-50 133.5q0 22 3 44l66 469h59l-65 -468q-3 -22 -3 -43q0 -133 139 -133q85 0 132.5 47.5t59.5 132.5l66 464h60l-66 -473q-15 -102 -80 -162.5zM428 800q-16 7 -34 20q-15 10 -23.5 14t-18.5 4q-20 0 -33 -9t-31 -32
l-33 21q45 66 98 66q17 0 30.5 -6t31.5 -18q14 -10 25 -15.5t23 -5.5q16 0 30.5 10.5t32.5 34.5l34 -22q-44 -69 -94 -69q-22 0 -38 7z" />
    <glyph glyph-name="utilde" unicode="&#x169;" horiz-adv-x="577" 
d="M385 0l14 133q-36 -67 -84.5 -105.5t-108.5 -38.5q-59 0 -91.5 33t-32.5 94q0 11 2 35l53 372h57l-52 -370q-2 -24 -2 -34q0 -43 19.5 -62.5t57.5 -19.5q102 0 188 166l44 320h58l-74 -523h-48zM371 674q-16 7 -35 20q-2 1 -10.5 7t-16 8.5t-14.5 2.5q-20 0 -32.5 -9
t-32.5 -33l-33 22q45 66 98 66q17 0 30.5 -6t31.5 -18q15 -11 26 -16t22 -5q16 0 30.5 10.5t32.5 34.5l34 -22q-44 -70 -94 -70q-21 1 -37 8z" />
    <glyph glyph-name="Umacron" unicode="&#x16a;" horiz-adv-x="649" 
d="M462 49.5q-65 -60.5 -173 -60.5q-98 0 -148 49.5t-50 133.5q0 22 3 44l66 469h59l-65 -468q-3 -22 -3 -43q0 -133 139 -133q85 0 132.5 47.5t59.5 132.5l66 464h60l-66 -473q-15 -102 -80 -162.5zM289 849h240l-7 -47h-240z" />
    <glyph glyph-name="umacron" unicode="&#x16b;" horiz-adv-x="577" 
d="M385 0l14 133q-36 -67 -84.5 -105.5t-108.5 -38.5q-59 0 -91.5 33t-32.5 94q0 11 2 35l53 372h57l-52 -370q-2 -24 -2 -34q0 -43 19.5 -62.5t57.5 -19.5q102 0 188 166l44 320h58l-74 -523h-48zM231 723h240l-7 -47h-240z" />
    <glyph glyph-name="Ubreve" unicode="&#x16c;" horiz-adv-x="649" 
d="M462 49.5q-65 -60.5 -173 -60.5q-98 0 -148 49.5t-50 133.5q0 22 3 44l66 469h59l-65 -468q-3 -22 -3 -43q0 -133 139 -133q85 0 132.5 47.5t59.5 132.5l66 464h60l-66 -473q-15 -102 -80 -162.5zM308.5 794q-32.5 29 -33.5 73l39 5q6 -28 26.5 -44t53.5 -16q35 0 61 17
t40 46l39 -12q-12 -43 -51.5 -70.5t-89.5 -27.5q-52 0 -84.5 29z" />
    <glyph glyph-name="ubreve" unicode="&#x16d;" horiz-adv-x="577" 
d="M385 0l14 133q-36 -67 -84.5 -105.5t-108.5 -38.5q-59 0 -91.5 33t-32.5 94q0 11 2 35l53 372h57l-52 -370q-2 -24 -2 -34q0 -43 19.5 -62.5t57.5 -19.5q102 0 188 166l44 320h58l-74 -523h-48zM259 684q-32 31 -32 81l41 6q9 -71 76 -71q36 0 63 19t41 54l38 -12
q-13 -49 -52.5 -78.5t-90.5 -29.5q-52 0 -84 31z" />
    <glyph glyph-name="Uring" unicode="&#x16e;" horiz-adv-x="649" 
d="M462 49.5q-65 -60.5 -173 -60.5q-98 0 -148 49.5t-50 133.5q0 22 3 44l66 469h59l-65 -468q-3 -22 -3 -43q0 -133 139 -133q85 0 132.5 47.5t59.5 132.5l66 464h60l-66 -473q-15 -102 -80 -162.5zM484 924q24 -23 24 -60q0 -46 -31 -75.5t-78 -29.5q-40 0 -64.5 23.5
t-24.5 59.5q0 45 31.5 75t78.5 30q40 0 64 -23zM375.5 895q-16.5 -16 -21.5 -45v-10q0 -21 12.5 -33t34.5 -12q26 0 42 16t21 45q1 4 1 12q0 20 -12.5 31.5t-34.5 11.5q-26 0 -42.5 -16z" />
    <glyph glyph-name="uring" unicode="&#x16f;" horiz-adv-x="577" 
d="M385 0l14 133q-36 -67 -84.5 -105.5t-108.5 -38.5q-59 0 -91.5 33t-32.5 94q0 11 2 35l53 372h57l-52 -370q-2 -24 -2 -34q0 -43 19.5 -62.5t57.5 -19.5q102 0 188 166l44 320h58l-74 -523h-48zM426.5 797.5q24.5 -23.5 24.5 -59.5q0 -45 -31.5 -75t-78.5 -30
q-39 0 -63.5 23.5t-24.5 59.5q0 45 31.5 75t77.5 30q40 0 64.5 -23.5zM317.5 769q-16.5 -16 -20.5 -46q-1 -3 -1 -9q0 -21 12.5 -33t34.5 -12q26 0 42 16t21 45q2 8 2 12q0 20 -13 31.5t-35 11.5q-26 0 -42.5 -16z" />
    <glyph glyph-name="Uhungarumlaut" unicode="&#x170;" horiz-adv-x="649" 
d="M462 49.5q-65 -60.5 -173 -60.5q-98 0 -148 49.5t-50 133.5q0 22 3 44l66 469h59l-65 -468q-3 -22 -3 -43q0 -133 139 -133q85 0 132.5 47.5t59.5 132.5l66 464h60l-66 -473q-15 -102 -80 -162.5zM432 768l-36 18l99 151l49 -27zM312 773l-36 17l90 147l49 -27z" />
    <glyph glyph-name="uhungarumlaut" unicode="&#x171;" horiz-adv-x="577" 
d="M385 0l14 133q-36 -67 -84.5 -105.5t-108.5 -38.5q-59 0 -91.5 33t-32.5 94q0 11 2 35l53 372h57l-52 -370q-2 -24 -2 -34q0 -43 19.5 -62.5t57.5 -19.5q102 0 188 166l44 320h58l-74 -523h-48zM415 642l-36 18l99 151l49 -27zM295 647l-36 17l90 147l49 -28z" />
    <glyph glyph-name="Uogonek" unicode="&#x172;" horiz-adv-x="649" 
d="M542 212q-12 -83 -58 -139.5t-121 -74.5q-64 -29 -90.5 -55.5t-26.5 -60.5q0 -25 16 -38.5t48 -13.5q25 0 56 7l-5 -49q-30 -6 -58 -6q-53 0 -82.5 26t-29.5 66q0 73 94 115q-96 1 -145 50t-49 133q0 22 3 44l66 469h59l-65 -468q-3 -22 -3 -43q0 -133 139 -133
q85 0 132.5 47.5t59.5 132.5l66 464h60z" />
    <glyph glyph-name="uogonek" unicode="&#x173;" horiz-adv-x="577" 
d="M326 -61q-32 -29 -32 -63q0 -45 55 -45q27 0 59 7l-10 -49q-30 -6 -57 -6q-49 0 -75 22.5t-26 58.5q0 48 34 83.5t113 65.5l12 120q-36 -67 -84.5 -105.5t-108.5 -38.5q-59 0 -91.5 33t-32.5 94q0 11 2 35l53 372h57l-52 -370q-2 -24 -2 -34q0 -43 19.5 -62.5t57.5 -19.5
q102 0 188 166l44 320h58l-74 -521l1 -2q-76 -32 -108 -61z" />
    <glyph glyph-name="Wcircumflex" unicode="&#x174;" horiz-adv-x="807" 
d="M515 0l-62 618l-236 -618h-73l-54 685h59l41 -628l238 628h67l64 -629l220 629h57l-247 -685h-74zM361 762l-25 30l143 102h36l115 -102l-27 -30l-111 80z" />
    <glyph glyph-name="wcircumflex" unicode="&#x175;" horiz-adv-x="696" 
d="M429 0l-49 469l-183 -469h-77l-57 523h57l45 -478l188 478h68l51 -479l178 479h57l-200 -523h-78zM405 779h35l114 -105l-28 -31l-109 85l-131 -85l-25 31z" />
    <glyph glyph-name="Ycircumflex" unicode="&#x176;" horiz-adv-x="520" 
d="M254 0h-60l38 267l-159 418h63l131 -363l233 363h67l-275 -417zM216 762l-25 30l143 102h36l115 -102l-27 -30l-111 80z" />
    <glyph glyph-name="ycircumflex" unicode="&#x177;" horiz-adv-x="465" 
d="M142 -140q-53 -46 -147 -64l-3 45q53 13 85.5 32.5t54.5 48t48 79.5l-21 -1l-107 523h61l90 -479l223 479h61l-249 -527q-43 -90 -96 -136zM285 779h35l114 -105l-28 -31l-109 85l-131 -85l-25 31z" />
    <glyph glyph-name="Ydieresis" unicode="&#x178;" horiz-adv-x="520" 
d="M254 0h-60l38 267l-159 418h63l131 -363l233 363h67l-275 -417zM274 857.5q10 -10.5 10 -25.5q0 -19 -11.5 -31t-30.5 -12q-16 0 -26.5 10.5t-10.5 25.5q0 19 12.5 31t30.5 12q16 0 26 -10.5zM462.5 857.5q10.5 -10.5 10.5 -25.5q0 -18 -12 -30.5t-30 -12.5
q-16 0 -26.5 10.5t-10.5 25.5q0 19 12 31t30 12q16 0 26.5 -10.5z" />
    <glyph glyph-name="Zacute" unicode="&#x179;" horiz-adv-x="513" 
d="M75 53h355l-15 -53h-417l7 50l445 583h-326l8 52h393l-6 -49zM242 758l-11 34l199 96l20 -52z" />
    <glyph glyph-name="zacute" unicode="&#x17a;" horiz-adv-x="419" 
d="M70 50h284l-13 -50h-351l7 45l347 428h-263l7 50h335l-6 -45zM171 645l-14 34l201 103l19 -52z" />
    <glyph glyph-name="Zdotaccent" unicode="&#x17b;" horiz-adv-x="513" 
d="M75 53h355l-15 -53h-417l7 50l445 583h-326l8 52h393l-6 -49zM375 868.5q11 -10.5 11 -27.5q0 -20 -12.5 -32.5t-33.5 -12.5q-18 0 -29 11t-11 28q0 19 13 31.5t33 12.5q18 0 29 -10.5z" />
    <glyph glyph-name="zdotaccent" unicode="&#x17c;" horiz-adv-x="419" 
d="M70 50h284l-13 -50h-351l7 45l347 428h-263l7 50h335l-6 -45zM309.5 742.5q10.5 -10.5 10.5 -27.5q0 -19 -12.5 -32t-33.5 -14q-18 1 -29 11.5t-11 27.5q0 20 13 32.5t33 12.5q19 0 29.5 -10.5z" />
    <glyph glyph-name="Zcaron" unicode="&#x17d;" horiz-adv-x="513" 
d="M75 53h355l-15 -53h-417l7 50l445 583h-326l8 52h393l-6 -49zM345 756h-35l-116 101l28 30l110 -79l132 80l23 -31z" />
    <glyph glyph-name="zcaron" unicode="&#x17e;" horiz-adv-x="419" 
d="M70 50h284l-13 -50h-351l7 45l347 428h-263l7 50h335l-6 -45zM288 634h-36l-114 106l27 30l110 -84l133 84l23 -30z" />
    <glyph glyph-name="florin" unicode="&#x192;" horiz-adv-x="319" 
d="M216 606l-11 -83h137l-13 -47h-131l-64 -459q-9 -68 -29 -108t-51.5 -64t-87.5 -49l-17 45q41 19 65 37.5t39.5 51.5t23.5 89l64 457h-91l7 47h91l12 87q8 62 51 97.5t110 35.5q33 0 60.5 -8.5t57.5 -26.5l-23 -40q-25 15 -47 21t-47 6q-93 0 -106 -89z" />
    <glyph glyph-name="AEacute" unicode="&#x1fc;" horiz-adv-x="780" 
d="M439 379h257l-7 -49h-245l33 -280h228l-8 -50h-272l-20 184h-284l-95 -184h-63l362 685h421l-14 -50h-323zM356 637l-209 -403h252zM435 758l-11 34l199 96l20 -52z" />
    <glyph glyph-name="aeacute" unicode="&#x1fd;" horiz-adv-x="847" 
d="M402 506.5q37 -27.5 49 -74.5q24 41 75 71.5t115 30.5q73 0 115 -35.5t42 -91.5q0 -95 -94.5 -140.5t-269.5 -59.5q0 -168 136 -168q41 0 75 13t72 40l27 -41q-42 -31 -85.5 -46.5t-92.5 -15.5q-62 0 -106 27t-65 77q-45 -56 -94 -80t-107 -24q-69 0 -108.5 37t-39.5 99
q0 77 58 128t183 51h102q12 49 24 78q-2 46 -35.5 74.5t-87.5 28.5q-61 0 -143 -29l-13 46q89 32 167 32q64 0 101 -27.5zM500 417.5q-51 -68.5 -63 -164.5q152 12 226 47.5t74 104.5q0 34 -24.5 57.5t-71.5 23.5q-90 0 -141 -68.5zM153 224q-45 -37 -45 -99q0 -43 25.5 -66
t70.5 -23q49 0 92.5 25.5t85.5 80.5q-5 25 -5 59q0 28 4 60h-88q-95 0 -140 -37zM382 645l-14 34l201 103l19 -52z" />
    <glyph glyph-name="Oslashacute" unicode="&#x1fe;" horiz-adv-x="688" 
d="M610 575q30 -62 30 -151q0 -100 -33 -200t-107.5 -167.5t-190.5 -67.5q-40 0 -78 11l-52 -120l-49 15l55 124q-55 31 -84.5 93t-29.5 150q0 97 34 197t109 168.5t190 68.5q42 0 75 -10l53 124l50 -14l-58 -128q56 -31 86 -93zM212 65l250 573q-25 7 -61 7
q-96 0 -156 -61.5t-86 -150.5t-26 -177q0 -140 79 -191zM468 102q60 62 85 151.5t25 178.5q0 143 -80 190l-250 -573q29 -9 62 -9q98 0 158 62zM320 770l-11 34l199 96l20 -52z" />
    <glyph glyph-name="oslashacute" unicode="&#x1ff;" horiz-adv-x="569" 
d="M428 506q40 -26 61 -72t21 -110q0 -74 -26 -151t-84.5 -130.5t-150.5 -53.5q-34 0 -63 9l-58 -123l-47 14l61 128q-41 26 -62 73t-21 111q0 75 26.5 151.5t85 129t150.5 52.5q35 0 63 -9l57 123l47 -14zM202 439.5q-45 -46.5 -64 -113.5t-19 -130q0 -97 51 -134l197 417
q-20 7 -48 7q-72 0 -117 -46.5zM250 38q71 0 115.5 46t64 113t19.5 131q0 96 -48 133l-197 -416q18 -7 46 -7zM240 645l-14 34l201 103l19 -52z" />
    <glyph glyph-name="Scommaaccent" unicode="&#x218;" horiz-adv-x="536" 
d="M429 676.5q45 -19.5 82 -57.5l-38 -36q-32 33 -67.5 47.5t-81.5 14.5q-70 0 -116 -35.5t-46 -92.5q0 -46 30.5 -74t107.5 -54q87 -27 131 -69t44 -116q0 -50 -26 -99.5t-83 -82.5t-145 -33q-68 0 -118.5 23t-89.5 65l39 36q33 -36 73.5 -54.5t96.5 -18.5q61 0 104.5 22.5
t65.5 59.5t22 80q0 51 -32 82.5t-108 57.5q-91 28 -131.5 68t-40.5 105q0 42 24.5 84t74.5 69.5t123 27.5q60 0 105 -19.5zM240 -96.5q11 -11.5 11 -27.5q0 -15 -6 -28.5t-25 -43.5l-52 -83h-36l50 115q-8 6 -13 15t-5 19q0 19 13.5 32t33.5 13q18 0 29 -11.5z" />
    <glyph glyph-name="scommaaccent" unicode="&#x219;" horiz-adv-x="461" 
d="M421 475l-32 -38q-55 49 -127 49q-58 0 -92 -24t-34 -65q0 -34 25 -55.5t89 -40.5q78 -24 112.5 -59.5t34.5 -94.5q0 -71 -55 -114.5t-148 -43.5q-61 0 -105.5 19t-79.5 52l36 37q62 -59 149 -59q68 0 105.5 29t37.5 77q0 41 -25.5 65t-94.5 46q-77 25 -108.5 57.5
t-31.5 82.5q0 37 22.5 69t64.5 51t98 19q91 0 159 -59zM209 -96.5q11 -11.5 11 -27.5q0 -14 -6 -27.5t-25 -43.5l-52 -84h-35l49 115q-8 6 -13 15t-5 19q0 19 13.5 32t33.5 13q18 0 29 -11.5z" />
    <glyph glyph-name="uni021A" unicode="&#x21a;" horiz-adv-x="492" 
d="M328 632l-89 -632h-60l89 632h-202l8 53h468l-15 -53h-199zM225 -96.5q11 -11.5 11 -27.5q0 -15 -6 -28.5t-25 -43.5l-52 -83h-36l50 115q-8 6 -13 15t-5 19q0 19 13.5 32t33.5 13q18 0 29 -11.5z" />
    <glyph glyph-name="uni021B" unicode="&#x21b;" horiz-adv-x="339" 
d="M142 102q0 -32 15 -47.5t48 -15.5q37 0 84 25l20 -43q-56 -32 -113 -32q-53 0 -82.5 28.5t-29.5 81.5q0 9 2 29l49 348h-88l7 47h89l29 127l46 5l-19 -132h134l-13 -47h-127l-49 -347q-2 -20 -2 -27zM204 -96.5q11 -11.5 11 -27.5q0 -14 -6 -27.5t-25 -43.5l-52 -84h-35
l49 115q-8 6 -13 15t-5 19q0 19 13.5 32t33.5 13q18 0 29 -11.5z" />
    <glyph glyph-name="jdotless" unicode="&#x237;" horiz-adv-x="267" 
d="M98 -91q-20 -40 -51.5 -64t-87.5 -49l-17 44q41 19 65 38t39.5 52t23.5 89l71 504h58l-72 -506q-9 -68 -29 -108z" />
    <glyph glyph-name="uni02BC" unicode="&#x2bc;" horiz-adv-x="151" 
d="M174.5 731.5q11.5 -12.5 9.5 -30.5q-1 -12 -6.5 -24.5t-22.5 -42.5l-50 -88h-36l47 119q-19 14 -19 34q0 19 13 32t33 13t31.5 -12.5z" />
    <glyph glyph-name="circumflex" unicode="&#x2c6;" horiz-adv-x="353" 
d="M231 779h35l114 -105l-28 -31l-109 85l-131 -85l-25 31z" />
    <glyph glyph-name="caron" unicode="&#x2c7;" horiz-adv-x="353" 
d="M247 633h-36l-114 106l27 30l110 -84l133 84l23 -30z" />
    <glyph glyph-name="breve" unicode="&#x2d8;" horiz-adv-x="318" 
d="M132 684q-32 31 -32 81l41 6q9 -71 76 -71q36 0 63 19t41 54l38 -12q-13 -49 -52.5 -78.5t-90.5 -29.5q-52 0 -84 31z" />
    <glyph glyph-name="dotaccent" unicode="&#x2d9;" horiz-adv-x="144" 
d="M167.5 742.5q10.5 -10.5 10.5 -27.5q0 -19 -12.5 -32t-33.5 -14q-18 1 -29 11.5t-11 27.5q0 20 13 32.5t33 12.5q19 0 29.5 -10.5z" />
    <glyph glyph-name="ring" unicode="&#x2da;" horiz-adv-x="252" 
d="M267.5 797.5q24.5 -23.5 24.5 -59.5q0 -45 -31.5 -75t-78.5 -30q-39 0 -63.5 23.5t-24.5 59.5q0 45 31.5 75t77.5 30q40 0 64.5 -23.5zM158.5 769q-16.5 -16 -20.5 -46q-1 -3 -1 -9q0 -21 12.5 -33t34.5 -12q26 0 42 16t21 45q2 8 2 12q0 20 -13 31.5t-35 11.5
q-26 0 -42.5 -16z" />
    <glyph glyph-name="ogonek" unicode="&#x2db;" horiz-adv-x="253" 
d="M27.5 -61q-32.5 -29 -32.5 -63q0 -45 55 -45q27 0 59 7l-10 -49q-30 -6 -57 -6q-49 0 -75 22.5t-26 58.5q0 52 42 91t141 71l11 -26q-75 -32 -107.5 -61z" />
    <glyph glyph-name="tilde" unicode="&#x2dc;" horiz-adv-x="358" 
d="M264 674q-16 7 -35 20q-2 1 -10.5 7t-16 8.5t-14.5 2.5q-20 0 -32.5 -9t-32.5 -33l-33 22q45 66 98 66q17 0 30.5 -6t31.5 -18q15 -11 26 -16t22 -5q16 0 30.5 10.5t32.5 34.5l34 -22q-44 -70 -94 -70q-21 1 -37 8z" />
    <glyph glyph-name="hungarumlaut" unicode="&#x2dd;" horiz-adv-x="310" 
d="M242 642l-36 18l99 151l49 -27zM122 647l-36 17l90 147l49 -28z" />
    <glyph glyph-name="gravecomb" unicode="&#x300;" horiz-adv-x="0" 
d="M306 632l-187 78l33 52l174 -96z" />
    <glyph glyph-name="acutecomb" unicode="&#x301;" horiz-adv-x="0" 
d="M124 632l-11 34l199 96l20 -52z" />
    <glyph glyph-name="uni0302" unicode="&#x302;" horiz-adv-x="0" 
d="M138 636l-25 30l143 102h36l115 -102l-27 -30l-111 80z" />
    <glyph glyph-name="tildecomb" unicode="&#x303;" horiz-adv-x="0" 
d="M254 674q-16 7 -35 20q-2 1 -10.5 7t-16 8.5t-14.5 2.5q-20 0 -32.5 -9t-32.5 -33l-33 22q45 66 98 66q17 0 30.5 -6t31.5 -18q15 -11 26 -16t22 -5q16 0 30.5 10.5t32.5 34.5l34 -22q-44 -70 -94 -70q-21 1 -37 8z" />
    <glyph glyph-name="uni0304" unicode="&#x304;" horiz-adv-x="0" 
d="M84 723h240l-7 -47h-240z" />
    <glyph glyph-name="uni0306" unicode="&#x306;" horiz-adv-x="0" 
d="M156.5 668q-32.5 29 -33.5 73l39 5q6 -28 26.5 -44t53.5 -16q35 0 61 17t40 46l39 -12q-12 -43 -51.5 -70.5t-89.5 -27.5q-52 0 -84.5 29z" />
    <glyph glyph-name="uni0307" unicode="&#x307;" horiz-adv-x="0" 
d="M157.5 742.5q10.5 -10.5 10.5 -27.5q0 -19 -12.5 -32t-33.5 -14q-18 1 -29 11.5t-11 27.5q0 20 13 32.5t33 12.5q19 0 29.5 -10.5z" />
    <glyph glyph-name="uni0308" unicode="&#x308;" horiz-adv-x="0" 
d="M149.5 731.5q10.5 -10.5 10.5 -25.5q0 -18 -12 -30.5t-30 -12.5q-17 0 -27 10.5t-10 25.5q0 18 12 30.5t30 12.5q16 0 26.5 -10.5zM338 731.5q10 -10.5 10 -25.5q0 -18 -12 -30.5t-30 -12.5q-16 0 -26.5 10.5t-10.5 25.5q0 18 12 30.5t30 12.5q17 0 27 -10.5z" />
    <glyph glyph-name="uni030A" unicode="&#x30a;" horiz-adv-x="0" 
d="M257.5 797.5q24.5 -23.5 24.5 -59.5q0 -45 -31.5 -75t-78.5 -30q-39 0 -63.5 23.5t-24.5 59.5q0 45 31.5 75t77.5 30q40 0 64.5 -23.5zM148.5 769q-16.5 -16 -20.5 -46q-1 -3 -1 -9q0 -21 12.5 -33t34.5 -12q26 0 42 16t21 45q2 8 2 12q0 20 -13 31.5t-35 11.5
q-26 0 -42.5 -16z" />
    <glyph glyph-name="uni030B" unicode="&#x30b;" horiz-adv-x="0" 
d="M232 642l-36 18l99 151l49 -27zM112 647l-36 17l90 147l49 -28z" />
    <glyph glyph-name="uni030C" unicode="&#x30c;" horiz-adv-x="0" 
d="M273 630h-35l-116 101l28 31l110 -80l132 80l23 -31z" />
    <glyph glyph-name="uni0313" unicode="&#x313;" horiz-adv-x="0" 
d="M180 761.5q11 -11.5 11 -27.5q0 -14 -6 -27.5t-25 -43.5l-52 -84h-35l49 115q-8 6 -13 15t-5 19q0 19 13.5 32t33.5 13q18 0 29 -11.5z" />
    <glyph glyph-name="uni0314" unicode="&#x314;" horiz-adv-x="0" 
d="M69 598.5q-11 11.5 -11 27.5q0 14 6 27.5t25 43.5l52 84h35l-49 -115q8 -6 13 -15t5 -19q0 -19 -13.5 -32t-33.5 -13q-18 0 -29 11.5z" />
    <glyph glyph-name="uni0326" unicode="&#x326;" horiz-adv-x="0" 
d="M56 -96.5q11 -11.5 11 -27.5q0 -14 -6 -27.5t-25 -43.5l-52 -84h-35l49 115q-8 6 -13 15t-5 19q0 19 13.5 32t33.5 13q18 0 29 -11.5z" />
    <glyph glyph-name="uni0327" unicode="&#x327;" horiz-adv-x="0" 
d="M121 -133q0 -39 -32 -66.5t-83 -27.5q-46 0 -79 22l22 35q23 -15 56 -15q26 -1 45.5 12.5t19.5 36.5q0 21 -18.5 30.5t-64.5 9.5l25 112h39l-13 -80q83 -7 83 -69z" />
    <glyph glyph-name="tonos" unicode="&#x384;" horiz-adv-x="156" 
d="M119 600l-42 7l58 167l63 -12z" />
    <glyph glyph-name="dieresistonos" unicode="&#x385;" horiz-adv-x="335" 
d="M251 716l-41 7l50 147l61 -12zM156.5 701q10.5 -10 10.5 -26q0 -18 -12.5 -30t-30.5 -12q-16 0 -26.5 10.5t-10.5 25.5q0 18 12.5 30t29.5 12t27.5 -10zM353.5 701q10.5 -10 10.5 -26q0 -18 -12.5 -30t-30.5 -12q-16 0 -26.5 10.5t-10.5 25.5q0 18 12.5 30t30.5 12
q16 0 26.5 -10z" />
    <glyph glyph-name="Alphatonos" unicode="&#x386;" horiz-adv-x="562" 
d="M127 187l-87 -187h-61l324 685h75l131 -685h-62l-33 187h-287zM334 636l-184 -398h255zM154 523l-43 8l58 167l67 -13z" />
    <glyph glyph-name="Epsilontonos" unicode="&#x388;" horiz-adv-x="509" 
d="M222 635l-36 -255h242l-6 -50h-242l-39 -280h293l-8 -50h-352l96 685h346l-14 -50h-280zM51 526l-43 8l58 167l67 -13z" />
    <glyph glyph-name="Etatonos" unicode="&#x389;" horiz-adv-x="667" 
d="M180 335l-47 -335h-59l96 685h59l-42 -299h328l42 299h59l-96 -685h-60l48 335h-328zM51 526l-43 8l58 167l67 -13z" />
    <glyph glyph-name="Iotatonos" unicode="&#x38a;" horiz-adv-x="281" 
d="M74 0l96 685h60l-96 -685h-60zM52 526l-43 8l58 167l67 -13z" />
    <glyph glyph-name="Omicrontonos" unicode="&#x38c;" horiz-adv-x="688" 
d="M577 625.5q63 -70.5 63 -201.5q0 -100 -33 -200t-107.5 -167.5t-190.5 -67.5q-110 0 -174 71t-64 202q0 97 34 197t109 168.5t190 68.5q110 0 173 -70.5zM245 583.5q-60 -61.5 -86 -150.5t-26 -177q0 -107 47 -161.5t130 -54.5q98 0 158 62t85 151.5t25 178.5
q0 106 -46 159.5t-131 53.5q-96 0 -156 -61.5zM54 526l-43 8l58 167l67 -13z" />
    <glyph glyph-name="Upsilontonos" unicode="&#x38e;" horiz-adv-x="520" 
d="M254 0h-60l38 267l-159 418h63l131 -363l233 363h67l-275 -417zM-24 526l-43 8l58 167l67 -13z" />
    <glyph glyph-name="Omegatonos" unicode="&#x38f;" horiz-adv-x="688" 
d="M577 626.5q63 -69.5 63 -199.5q0 -122 -42 -224.5t-143 -149.5h116l-8 -53h-197l6 52q113 39 159.5 147.5t46.5 234.5q0 105 -46 158t-131 53q-95 0 -155 -61t-86 -149.5t-26 -177.5q0 -82 30 -130.5t90 -74.5l-6 -52h-197l7 53h121q-55 31 -81.5 81.5t-26.5 129.5
q0 96 34 195.5t108.5 168t188.5 68.5q112 0 175 -69.5zM59 526l-43 8l58 167l67 -13z" />
    <glyph glyph-name="iotadieresistonos" unicode="&#x390;" horiz-adv-x="261" 
d="M135 93q0 -23 8.5 -35.5t29.5 -22.5l-23 -43q-39 12 -55.5 34t-16.5 61q0 22 2 34l57 402h57l-57 -401q-2 -22 -2 -29zM212 716l-41 7l50 147l61 -12zM117.5 701q10.5 -10 10.5 -26q0 -18 -12.5 -30t-30.5 -12q-16 0 -26.5 10.5t-10.5 25.5q0 18 12.5 30t29.5 12
t27.5 -10zM314.5 701q10.5 -10 10.5 -26q0 -18 -12.5 -30t-30.5 -12q-16 0 -26.5 10.5t-10.5 25.5q0 18 12.5 30t30.5 12q16 0 26.5 -10z" />
    <glyph glyph-name="Alpha" unicode="&#x391;" horiz-adv-x="562" 
d="M127 187l-87 -187h-61l324 685h75l131 -685h-62l-33 187h-287zM334 636l-184 -398h255z" />
    <glyph glyph-name="Beta" unicode="&#x392;" horiz-adv-x="595" 
d="M495.5 319.5q38.5 -34.5 38.5 -101.5q0 -93 -64 -155.5t-209 -62.5h-187l96 685h170q96 0 151.5 -38t55.5 -112q0 -66 -39.5 -112.5t-114.5 -60.5q64 -8 102.5 -42.5zM187 384h132q54 0 92 20.5t57 54.5t19 74q0 102 -145 102h-120zM425 98q47 48 47 121q0 60 -39.5 88.5
t-108.5 28.5h-143l-40 -286h124q113 0 160 48z" />
    <glyph glyph-name="Gamma" unicode="&#x393;" horiz-adv-x="506" 
d="M222 632l-89 -632h-59l96 685l2 -1l-1 1h385l-17 -53h-317z" />
    <glyph glyph-name="Delta" unicode="&#x394;" horiz-adv-x="572" 
d="M-21 0l329 685h75l136 -685h-540zM448 51l-109 584l-277 -584h386z" />
    <glyph glyph-name="Epsilon" unicode="&#x395;" horiz-adv-x="509" 
d="M222 635l-36 -255h242l-6 -50h-242l-39 -280h293l-8 -50h-352l96 685h346l-14 -50h-280z" />
    <glyph glyph-name="Zeta" unicode="&#x396;" horiz-adv-x="513" 
d="M75 53h355l-15 -53h-417l7 50l445 583h-326l8 52h393l-6 -49z" />
    <glyph glyph-name="Eta" unicode="&#x397;" horiz-adv-x="667" 
d="M180 335l-47 -335h-59l96 685h59l-42 -299h328l42 299h59l-96 -685h-60l48 335h-328z" />
    <glyph glyph-name="Theta" unicode="&#x398;" horiz-adv-x="688" 
d="M576.5 625.5q63.5 -70.5 63.5 -201.5q0 -98 -33.5 -198t-108 -168.5t-189.5 -68.5q-110 0 -174 71t-64 202q0 97 34 197t108 168.5t189 68.5q111 0 174.5 -70.5zM245 583.5q-60 -61.5 -86 -150.5t-26 -177q0 -107 47 -161.5t130 -54.5q98 0 158 62t85 151.5t25 178.5
q0 107 -46 160t-131 53q-96 0 -156 -61.5zM224 327l8 49h257l-7 -49h-258z" />
    <glyph glyph-name="Iota" unicode="&#x399;" horiz-adv-x="281" 
d="M74 0l96 685h60l-96 -685h-60z" />
    <glyph glyph-name="Kappa" unicode="&#x39a;" horiz-adv-x="545" 
d="M74 0l96 685h59l-96 -685h-59zM508 0h-71l-248 367l327 318h72l-330 -320z" />
    <glyph glyph-name="Lambda" unicode="&#x39b;" horiz-adv-x="562" 
d="M446 0l-112 636l-295 -636h-60l324 685h75l131 -685h-63z" />
    <glyph glyph-name="Mu" unicode="&#x39c;" horiz-adv-x="776" 
d="M604 0l15 330q7 182 17 298l-249 -547h-57l-101 545q-10 -64 -64 -298l-76 -328h-57l161 685h79l96 -534l238 534h86l-31 -685h-57z" />
    <glyph glyph-name="Nu" unicode="&#x39d;" horiz-adv-x="670" 
d="M446 0l-237 631q-1 -45 -6.5 -100t-18.5 -150l-54 -381h-56l96 685h77l237 -630q3 89 20 215l58 415h57l-97 -685h-76z" />
    <glyph glyph-name="Xi" unicode="&#x39e;" horiz-adv-x="495" 
d="M102 630l7 55h385l-15 -55h-377zM118 327l7 55h275l-8 -55h-274zM13 0l8 57h395l-8 -57h-395z" />
    <glyph glyph-name="Omicron" unicode="&#x39f;" horiz-adv-x="688" 
d="M577 625.5q63 -70.5 63 -201.5q0 -100 -33 -200t-107.5 -167.5t-190.5 -67.5q-110 0 -174 71t-64 202q0 97 34 197t109 168.5t190 68.5q110 0 173 -70.5zM245 583.5q-60 -61.5 -86 -150.5t-26 -177q0 -107 47 -161.5t130 -54.5q98 0 158 62t85 151.5t25 178.5
q0 106 -46 159.5t-131 53.5q-96 0 -156 -61.5z" />
    <glyph glyph-name="Pi" unicode="&#x3a0;" horiz-adv-x="662" 
d="M455 0l89 633h-322l-89 -633h-59l96 685h441l-96 -685h-60z" />
    <glyph glyph-name="Rho" unicode="&#x3a1;" horiz-adv-x="567" 
d="M497 642q59 -43 59 -130q0 -105 -67.5 -175t-217.5 -70h-101l-37 -267h-59l96 685h158q110 0 169 -43zM444 371q50 55 50 141q0 66 -43 95t-127 29h-102l-45 -320h97q120 0 170 55z" />
    <glyph glyph-name="Sigma" unicode="&#x3a3;" horiz-adv-x="491" 
d="M170 634l174 -277l-4 -34l-251 -272h328l-8 -51h-401l6 44l272 295l-187 302l5 44h401l-7 -51h-328z" />
    <glyph glyph-name="Tau" unicode="&#x3a4;" horiz-adv-x="492" 
d="M328 632l-89 -632h-60l89 632h-202l8 53h468l-15 -53h-199z" />
    <glyph glyph-name="Upsilon" unicode="&#x3a5;" horiz-adv-x="520" 
d="M254 0h-60l38 267l-159 418h63l131 -363l233 363h67l-275 -417z" />
    <glyph glyph-name="Phi" unicode="&#x3a6;" horiz-adv-x="788" 
d="M727.5 234q-33.5 -68 -115 -113.5t-216.5 -50.5l-10 -70h-58l10 71q-142 5 -215 66.5t-73 167.5q0 79 34 146.5t115.5 113t215.5 49.5l9 71h59l-10 -71q141 -5 214.5 -66.5t73.5 -166.5q0 -79 -33.5 -147zM176.5 484q-66.5 -74 -66.5 -181q0 -88 59.5 -135t176.5 -50
l63 450q-166 -10 -232.5 -84zM635.5 201.5q65.5 74.5 65.5 181.5q0 87 -59 134t-177 51l-63 -451q168 10 233.5 84.5z" />
    <glyph glyph-name="Chi" unicode="&#x3a7;" horiz-adv-x="509" 
d="M464 0h-65l-135 327l-225 -327h-66l259 369l1 1l-143 315h65l116 -275l196 275h66l-228 -314l-2 -2z" />
    <glyph glyph-name="Psi" unicode="&#x3a8;" horiz-adv-x="668" 
d="M650 425q-15 -107 -90 -163t-205 -62l-28 -200h-60l28 201q-115 6 -174.5 54t-59.5 135q0 12 2 38l37 257h59l-36 -256q-2 -13 -2 -37q0 -69 44 -103.5t138 -38.5l61 435h58l-61 -435q105 5 162 50.5t69 132.5l36 252h59z" />
    <glyph glyph-name="Omega" unicode="&#x3a9;" horiz-adv-x="688" 
d="M577 626.5q63 -69.5 63 -199.5q0 -122 -42 -224.5t-143 -149.5h116l-8 -53h-197l6 52q113 39 159.5 147.5t46.5 234.5q0 105 -46 158t-131 53q-95 0 -155 -61t-86 -149.5t-26 -177.5q0 -82 30 -130.5t90 -74.5l-6 -52h-197l7 53h121q-55 31 -81.5 81.5t-26.5 129.5
q0 96 34 195.5t108.5 168t188.5 68.5q112 0 175 -69.5z" />
    <glyph glyph-name="Iotadieresis" unicode="&#x3aa;" horiz-adv-x="281" 
d="M74 0l96 685h60l-96 -685h-60zM155 857.5q10 -10.5 10 -25.5q0 -19 -11.5 -31t-30.5 -12q-16 0 -26.5 10.5t-10.5 25.5q0 19 12.5 31t30.5 12q16 0 26 -10.5zM343.5 857.5q10.5 -10.5 10.5 -25.5q0 -18 -12 -30.5t-30 -12.5q-16 0 -26.5 10.5t-10.5 25.5q0 19 12 31
t30 12q16 0 26.5 -10.5z" />
    <glyph glyph-name="Upsilondieresis" unicode="&#x3ab;" horiz-adv-x="520" 
d="M254 0h-60l38 267l-159 418h63l131 -363l233 363h67l-275 -417zM274 857.5q10 -10.5 10 -25.5q0 -19 -11.5 -31t-30.5 -12q-16 0 -26.5 10.5t-10.5 25.5q0 19 12.5 31t30.5 12q16 0 26 -10.5zM462.5 857.5q10.5 -10.5 10.5 -25.5q0 -18 -12 -30.5t-30 -12.5
q-16 0 -26.5 10.5t-10.5 25.5q0 19 12 31t30 12q16 0 26.5 -10.5z" />
    <glyph glyph-name="alphatonos" unicode="&#x3ac;" horiz-adv-x="593" 
d="M398 491.5q36 -42.5 40 -148.5l62 180h56l-96 -261l6 -172q1 -22 9 -32.5t25 -16.5l-24 -49q-28 6 -46 25.5t-18 55.5l-1 104q-36 -95 -84.5 -141.5t-115.5 -46.5q-74 0 -114 49.5t-40 145.5q0 79 24 159.5t76 135.5t131 55q74 0 110 -42.5zM193.5 436.5
q-39.5 -49.5 -57.5 -120t-18 -136.5q0 -143 99 -143q55 0 102.5 51.5t90.5 181.5q-4 85 -17.5 132t-37.5 65.5t-63 18.5q-59 0 -98.5 -49.5zM336 600l-42 7l58 167l63 -12z" />
    <glyph glyph-name="epsilontonos" unicode="&#x3ad;" horiz-adv-x="464" 
d="M451 483l-33 -35q-50 39 -118 39q-72 0 -104.5 -32t-32.5 -71q0 -40 29 -63.5t81 -23.5h60l-14 -47h-54q-87 0 -121.5 -34t-34.5 -83q0 -46 31 -70.5t88 -24.5q46 0 80 12.5t76 40.5l27 -39q-85 -63 -187 -63q-80 0 -128.5 38.5t-48.5 102.5q0 55 35 97.5t118 50.5
q-45 9 -70 37.5t-25 67.5q0 66 51 108.5t140 42.5q92 0 155 -51zM317 600l-42 7l58 167l63 -12z" />
    <glyph glyph-name="etatonos" unicode="&#x3ae;" horiz-adv-x="585" 
d="M470 501.5q33 -32.5 33 -92.5q0 -17 -3 -37l-83 -571l-56 -8l81 574q3 21 3 36q0 44 -20.5 64t-60.5 20q-52 0 -99 -44t-92 -135l-43 -308h-58l51 357q7 50 7 90t-7 78l52 5q9 -36 9 -70q0 -31 -4 -68q40 72 90 107t105 35q62 0 95 -32.5zM353 600l-42 7l58 167l63 -12z
" />
    <glyph glyph-name="iotatonos" unicode="&#x3af;" horiz-adv-x="261" 
d="M135 93q0 -23 8.5 -35.5t29.5 -22.5l-23 -43q-39 12 -55.5 34t-16.5 61q0 22 2 34l57 402h57l-57 -401q-2 -22 -2 -29zM198 600l-42 7l58 167l63 -12z" />
    <glyph glyph-name="upsilondieresistonos" unicode="&#x3b0;" horiz-adv-x="561" 
d="M491 413q0 -181 -58 -302.5t-199 -121.5q-78 0 -113.5 41t-35.5 102q0 11 2 31l51 360h57l-50 -361q-2 -18 -2 -28q0 -44 22 -70t73 -26q110 0 152.5 112.5t42.5 269.5q0 55 -3 103h56q5 -58 5 -110zM363 716l-41 7l50 147l61 -12zM268.5 701q10.5 -10 10.5 -26
q0 -18 -12.5 -30t-30.5 -12q-16 0 -26.5 10.5t-10.5 25.5q0 18 12.5 30t29.5 12t27.5 -10zM465.5 701q10.5 -10 10.5 -26q0 -18 -12.5 -30t-30.5 -12q-16 0 -26.5 10.5t-10.5 25.5q0 18 12.5 30t30.5 12q16 0 26.5 -10z" />
    <glyph glyph-name="alpha" unicode="&#x3b1;" horiz-adv-x="593" 
d="M398 491.5q36 -42.5 40 -148.5l62 180h56l-96 -261l6 -172q1 -22 9 -32.5t25 -16.5l-24 -49q-28 6 -46 25.5t-18 55.5l-1 104q-36 -95 -84.5 -141.5t-115.5 -46.5q-74 0 -114 49.5t-40 145.5q0 79 24 159.5t76 135.5t131 55q74 0 110 -42.5zM193.5 436.5
q-39.5 -49.5 -57.5 -120t-18 -136.5q0 -143 99 -143q55 0 102.5 51.5t90.5 181.5q-4 85 -17.5 132t-37.5 65.5t-63 18.5q-59 0 -98.5 -49.5z" />
    <glyph glyph-name="beta" unicode="&#x3b2;" horiz-adv-x="588" 
d="M481.5 702q48.5 -41 48.5 -115q0 -68 -44 -123t-138 -66q78 -3 129.5 -48t51.5 -129q0 -55 -26 -108.5t-79.5 -88.5t-131.5 -35q-46 0 -87 16.5t-70 49.5l-36 -254l-59 -8l105 750q13 95 71.5 147.5t144.5 52.5q72 0 120.5 -41zM256 656q-42 -40 -53 -118l-60 -430
q28 -36 63 -53t83 -17q62 0 103 28t59.5 70t18.5 85q0 74 -47 114t-132 40h-49l13 46h43q57 0 97 23.5t59.5 61.5t19.5 81q0 56 -31.5 82.5t-81.5 26.5q-63 0 -105 -40z" />
    <glyph glyph-name="gamma" unicode="&#x3b3;" horiz-adv-x="459" 
d="M162 361.5q28 -112.5 41 -290.5l217 460l60 -13l-254 -500q-20 -40 -30 -73t-10 -66q0 -37 13 -76l-49 -10q-21 52 -21 96q0 55 34 126q-26 207 -54 323t-68 174l58 17q35 -55 63 -167.5z" />
    <glyph glyph-name="delta" unicode="&#x3b4;" horiz-adv-x="566" 
d="M510 685l-34 -35q-28 24 -57 35t-64 11q-65 0 -96.5 -28.5t-31.5 -64.5q0 -34 23 -57t84 -48q88 -37 128.5 -85.5t40.5 -124.5q0 -63 -25 -132t-82 -118t-147 -49q-88 0 -139 56t-51 150q0 99 45.5 170.5t152.5 114.5q-47 26 -68 55t-21 69q0 34 19.5 66t60.5 52.5
t101 20.5q97 0 161 -58zM158.5 351q-39.5 -66 -39.5 -160q0 -71 34.5 -112t97.5 -41q70 0 113 42t61 100.5t18 110.5q0 61 -33 99t-111 71q-101 -44 -140.5 -110z" />
    <glyph glyph-name="epsilon" unicode="&#x3b5;" horiz-adv-x="463" 
d="M451 483l-33 -35q-50 39 -118 39q-72 0 -104.5 -32t-32.5 -71q0 -40 29 -63.5t81 -23.5h60l-14 -47h-54q-87 0 -121.5 -34t-34.5 -83q0 -46 31 -70.5t88 -24.5q46 0 80 12.5t76 40.5l27 -39q-85 -63 -187 -63q-80 0 -128.5 38.5t-48.5 102.5q0 55 35 97.5t118 50.5
q-45 9 -70 37.5t-25 67.5q0 66 51 108.5t140 42.5q92 0 155 -51z" />
    <glyph glyph-name="zeta" unicode="&#x3b6;" horiz-adv-x="371" 
d="M181.5 430.5q-80.5 -110.5 -80.5 -212.5q0 -55 25.5 -84.5t86.5 -53.5q69 -27 98.5 -54t29.5 -75q0 -43 -34.5 -81.5t-123.5 -76.5l-19 40q116 53 116 114q0 21 -9 35t-30.5 26t-66.5 31q-68 27 -101 67.5t-33 112.5q0 67 38 146t119.5 164t205.5 166q-33 -7 -134 -7
h-168l14 48h341l3 -47q-197 -148 -277.5 -258.5z" />
    <glyph glyph-name="eta" unicode="&#x3b7;" horiz-adv-x="585" 
d="M470 501.5q33 -32.5 33 -92.5q0 -17 -3 -37l-83 -571l-56 -8l81 574q3 21 3 36q0 44 -20.5 64t-60.5 20q-52 0 -99 -44t-92 -135l-43 -308h-58l51 357q7 50 7 90t-7 78l52 5q9 -36 9 -70q0 -31 -4 -68q40 72 90 107t105 35q62 0 95 -32.5z" />
    <glyph glyph-name="theta" unicode="&#x3b8;" 
d="M477.5 679q43.5 -64 43.5 -186q0 -62 -10 -126q-26 -184 -92.5 -281t-174.5 -97q-87 0 -131 65t-44 185q0 51 10 133q26 181 94 276t173 95q88 0 131.5 -64zM215.5 621q-49.5 -74 -74.5 -228h314q9 58 9 120q0 92 -30 137t-92 45q-77 0 -126.5 -74zM126 224
q0 -94 30 -140t92 -46q78 0 126.5 75t74.5 234h-314q-9 -70 -9 -123z" />
    <glyph glyph-name="iota" unicode="&#x3b9;" horiz-adv-x="261" 
d="M135 93q0 -23 8.5 -35.5t29.5 -22.5l-23 -43q-39 12 -55.5 34t-16.5 61q0 22 2 34l57 402h57l-57 -401q-2 -22 -2 -29z" />
    <glyph glyph-name="kappa" unicode="&#x3ba;" horiz-adv-x="499" 
d="M245 273l148 -184q18 -24 31 -34.5t34 -20.5l-23 -43q-28 8 -45.5 22t-36.5 39l-178 223l277 259l42 -29zM187 445q0 -47 -9 -102l-48 -343h-58l51 357q7 50 7 90t-7 78l53 6q11 -40 11 -86z" />
    <glyph glyph-name="lambda" unicode="&#x3bb;" horiz-adv-x="469" 
d="M249.5 703q35.5 -28 52 -75t21.5 -126q11 -153 28 -245.5t37.5 -142.5t53.5 -103l-55 -19q-33 55 -53.5 106.5t-36 140.5t-23.5 231l-225 -479l-54 14l253 524l21 -4q-4 55 -16 88.5t-38.5 54.5t-75.5 32l12 44q63 -13 98.5 -41z" />
    <glyph glyph-name="mu" unicode="&#x3bc;" horiz-adv-x="582" 
d="M451 86q0 -48 9 -90l-53 -4q-12 47 -12 82l1 26q-36 -51 -78.5 -81t-95.5 -30q-74 0 -99 52q3 -43 -9 -123l-16 -115l-58 -6l103 726h57l-53 -375q-2 -18 -2 -26q0 -43 22.5 -62.5t60.5 -19.5q95 0 170 119l51 364h57l-49 -348q-6 -51 -6 -89z" />
    <glyph glyph-name="nu" unicode="&#x3bd;" horiz-adv-x="459" 
d="M198 50l225 481l57 -13l-253 -518l-73 1q-22 218 -47.5 336t-65.5 175l56 17q74 -116 101 -479z" />
    <glyph glyph-name="xi" unicode="&#x3be;" horiz-adv-x="421" 
d="M488 689l-33 -34q-53 41 -120 41q-70 0 -104 -37t-34 -90q0 -48 29 -75.5t83 -27.5h61l-15 -49h-58q-65 0 -106.5 -29t-59.5 -71.5t-18 -85.5q0 -54 30 -87t105 -63q69 -28 98.5 -55t29.5 -75q0 -43 -34.5 -81.5t-123.5 -76.5l-20 40q116 52 116 114q0 21 -9 35t-30.5 26
t-65.5 31q-80 34 -118.5 77t-38.5 114q0 80 46.5 141t139.5 74q-46 11 -73 43.5t-27 79.5q0 51 24.5 91t69 62t101.5 22q91 0 155 -54z" />
    <glyph glyph-name="omicron" unicode="&#x3bf;" horiz-adv-x="569" 
d="M460.5 479q49.5 -55 49.5 -155q0 -74 -26 -151t-84.5 -130.5t-150.5 -53.5q-91 0 -140.5 56t-49.5 156q0 75 26.5 151.5t85 129t150.5 52.5q90 0 139.5 -55zM202 439.5q-45 -46.5 -64 -113.5t-19 -130q0 -78 33.5 -118t97.5 -40q71 0 115.5 46t64 113t19.5 131
q0 78 -33.5 118t-96.5 40q-72 0 -117 -46.5z" />
    <glyph glyph-name="pi" unicode="&#x3c0;" horiz-adv-x="584" 
d="M486 474l-50 -352q-2 -22 -2 -29q0 -23 8.5 -35.5t29.5 -22.5l-23 -43q-39 12 -56 34.5t-17 60.5q0 16 3 34l50 353h-213l-67 -474h-57l66 474q-31 -1 -48 -3t-37 -8l-8 47q21 8 48 11t71 2h400l-7 -49h-91z" />
    <glyph glyph-name="rho" unicode="&#x3c1;" horiz-adv-x="571" 
d="M462.5 481.5q44.5 -52.5 44.5 -146.5q0 -77 -24 -157t-77.5 -134.5t-136.5 -54.5q-48 0 -84.5 20t-57.5 52l-36 -260l-59 -8l70 494q16 116 74.5 181.5t153.5 65.5q88 0 132.5 -52.5zM215 432q-43 -55 -58 -157l-21 -151q37 -86 124 -86q67 0 109 48t59.5 116.5
t17.5 135.5q0 74 -29.5 111.5t-87.5 37.5q-71 0 -114 -55z" />
    <glyph glyph-name="sigmafinal" unicode="&#x3c2;" horiz-adv-x="457" 
d="M395 521q35 -13 67 -42l-34 -35q-24 21 -50.5 31t-60.5 10q-67 0 -111.5 -42t-64.5 -102.5t-20 -115.5q0 -57 27.5 -88t90.5 -56q69 -26 98.5 -54t29.5 -76q0 -43 -34.5 -81.5t-123.5 -76.5l-20 40q116 52 116 114q0 21 -9 35t-30.5 26t-65.5 31q-70 28 -104 70.5
t-34 117.5q0 67 25.5 137.5t82.5 120t146 49.5q44 0 79 -13z" />
    <glyph glyph-name="sigma" unicode="&#x3c3;" horiz-adv-x="574" 
d="M567 523l-5 -47l-125 8q34 -25 53 -68.5t19 -102.5q0 -71 -26 -145.5t-84 -126.5t-149 -52t-140.5 56.5t-49.5 155.5q0 77 26.5 151.5t92 126t173.5 51.5q77 0 215 -7zM215 443q-53 -45 -73.5 -111.5t-20.5 -137.5q0 -75 34 -115.5t96 -40.5q72 0 116.5 46t63.5 111
t19 127q0 59 -20 100t-55 64h-18q-89 2 -142 -43z" />
    <glyph glyph-name="tau" unicode="&#x3c4;" horiz-adv-x="434" 
d="M268 474l-50 -352q-2 -22 -2 -29q0 -23 8.5 -35.5t29.5 -22.5l-22 -43q-40 12 -57 34.5t-17 60.5q0 16 3 34l49 353h-81q-41 0 -59.5 -2t-39.5 -9l-8 47q20 8 47.5 11t71.5 2h321l-7 -49h-187z" />
    <glyph glyph-name="upsilon" unicode="&#x3c5;" horiz-adv-x="561" 
d="M491 413q0 -181 -58 -302.5t-199 -121.5q-78 0 -113.5 41t-35.5 102q0 11 2 31l51 360h57l-50 -361q-2 -18 -2 -28q0 -44 22 -70t73 -26q110 0 152.5 112.5t42.5 269.5q0 55 -3 103h56q5 -58 5 -110z" />
    <glyph glyph-name="phi" unicode="&#x3c6;" horiz-adv-x="717" 
d="M656 355q0 -99 -24 -176.5t-92.5 -130t-195.5 -58.5l-26 -189l-57 -8l28 197q-112 7 -165.5 55.5t-53.5 142.5q0 139 100 335h58q-47 -90 -74 -176.5t-27 -156.5q0 -79 41 -113.5t126 -40.5l45 313q13 93 59 139t117 46q141 0 141 -179zM436.5 455q-30.5 -32 -43.5 -116
l-42 -303q103 7 157.5 53.5t72 115t17.5 162.5q0 65 -20.5 92.5t-62.5 27.5q-48 0 -78.5 -32z" />
    <glyph glyph-name="chi" unicode="&#x3c7;" horiz-adv-x="431" 
d="M357 -193l-58 -10l-104 339l-204 -338l-58 7l237 380q-42 140 -71.5 208t-68.5 119l57 19q38 -52 64 -114t56 -182l172 295l60 -7l-206 -339z" />
    <glyph glyph-name="psi" unicode="&#x3c8;" horiz-adv-x="745" 
d="M650.5 197q-23.5 -91 -92 -146t-197.5 -61l-26 -189l-57 -8l27 196q-111 4 -167.5 50.5t-56.5 132.5q0 13 4 43l44 308h57l-44 -309q-3 -21 -3 -39q0 -67 42 -100.5t131 -37.5l68 486h56l-68 -486q108 7 162 61t70 134.5t16 199.5q0 10 -3 91h56q5 -52 5 -97
q0 -138 -23.5 -229z" />
    <glyph glyph-name="omega" unicode="&#x3c9;" horiz-adv-x="772" 
d="M699 337q0 -144 -50.5 -246t-161.5 -102q-57 0 -89.5 31t-30.5 93q-38 -124 -152 -124q-68 0 -107 44.5t-39 135.5q0 164 102 354h58q-102 -200 -102 -356q0 -129 95 -129q104 0 125 143l24 172l58 8l-26 -184q-3 -24 -3 -42q0 -97 83 -97q87 0 122.5 91t35.5 215
q0 89 -23 179h57q24 -92 24 -186z" />
    <glyph glyph-name="iotadieresis" unicode="&#x3ca;" horiz-adv-x="261" 
d="M135 93q0 -23 8.5 -35.5t29.5 -22.5l-23 -43q-39 12 -55.5 34t-16.5 61q0 22 2 34l57 402h57l-57 -401q-2 -22 -2 -29zM119.5 731.5q10.5 -10.5 10.5 -25.5q0 -18 -12 -30.5t-30 -12.5q-17 0 -27 10.5t-10 25.5q0 18 12 30.5t30 12.5q16 0 26.5 -10.5zM308 731.5
q10 -10.5 10 -25.5q0 -18 -12 -30.5t-30 -12.5q-16 0 -26.5 10.5t-10.5 25.5q0 18 12 30.5t30 12.5q17 0 27 -10.5z" />
    <glyph glyph-name="upsilondieresis" unicode="&#x3cb;" horiz-adv-x="561" 
d="M491 413q0 -181 -58 -302.5t-199 -121.5q-78 0 -113.5 41t-35.5 102q0 11 2 31l51 360h57l-50 -361q-2 -18 -2 -28q0 -44 22 -70t73 -26q110 0 152.5 112.5t42.5 269.5q0 55 -3 103h56q5 -58 5 -110zM269.5 731.5q10.5 -10.5 10.5 -25.5q0 -18 -12 -30.5t-30 -12.5
q-17 0 -27 10.5t-10 25.5q0 18 12 30.5t30 12.5q16 0 26.5 -10.5zM458 731.5q10 -10.5 10 -25.5q0 -18 -12 -30.5t-30 -12.5q-16 0 -26.5 10.5t-10.5 25.5q0 18 12 30.5t30 12.5q17 0 27 -10.5z" />
    <glyph glyph-name="omicrontonos" unicode="&#x3cc;" horiz-adv-x="569" 
d="M460.5 479q49.5 -55 49.5 -155q0 -74 -26 -151t-84.5 -130.5t-150.5 -53.5q-91 0 -140.5 56t-49.5 156q0 75 26.5 151.5t85 129t150.5 52.5q90 0 139.5 -55zM202 439.5q-45 -46.5 -64 -113.5t-19 -130q0 -78 33.5 -118t97.5 -40q71 0 115.5 46t64 113t19.5 131
q0 78 -33.5 118t-96.5 40q-72 0 -117 -46.5zM354 600l-42 7l58 167l63 -12z" />
    <glyph glyph-name="upsilontonos" unicode="&#x3cd;" horiz-adv-x="561" 
d="M491 413q0 -181 -58 -302.5t-199 -121.5q-78 0 -113.5 41t-35.5 102q0 11 2 31l51 360h57l-50 -361q-2 -18 -2 -28q0 -44 22 -70t73 -26q110 0 152.5 112.5t42.5 269.5q0 55 -3 103h56q5 -58 5 -110zM350 600l-42 7l58 167l63 -12z" />
    <glyph glyph-name="omegatonos" unicode="&#x3ce;" horiz-adv-x="772" 
d="M699 337q0 -144 -50.5 -246t-161.5 -102q-57 0 -89.5 31t-30.5 93q-38 -124 -152 -124q-68 0 -107 44.5t-39 135.5q0 164 102 354h58q-102 -200 -102 -356q0 -129 95 -129q104 0 125 143l24 172l58 8l-26 -184q-3 -24 -3 -42q0 -97 83 -97q87 0 122.5 91t35.5 215
q0 89 -23 179h57q24 -92 24 -186zM455 600l-42 7l58 167l63 -12z" />
    <glyph glyph-name="uni0400" unicode="&#x400;" horiz-adv-x="509" 
d="M222 635l-36 -255h242l-6 -50h-242l-39 -280h293l-8 -50h-352l96 685h346l-14 -50h-280zM450 758l-187 78l33 52l174 -96z" />
    <glyph glyph-name="uni0401" unicode="&#x401;" horiz-adv-x="509" 
d="M222 635l-36 -255h242l-6 -50h-242l-39 -280h293l-8 -50h-352l96 685h346l-14 -50h-280zM302 857.5q10 -10.5 10 -25.5q0 -19 -11.5 -31t-30.5 -12q-16 0 -26.5 10.5t-10.5 25.5q0 19 12.5 31t30.5 12q16 0 26 -10.5zM490.5 857.5q10.5 -10.5 10.5 -25.5q0 -18 -12 -30.5
t-30 -12.5q-16 0 -26.5 10.5t-10.5 25.5q0 19 12 31t30 12q16 0 26.5 -10.5z" />
    <glyph glyph-name="uni0402" unicode="&#x402;" horiz-adv-x="697" 
d="M607 395q44 -42 44 -117q0 -18 -3 -41l-21 -147q-8 -61 -28.5 -99t-56.5 -62.5t-97 -47.5l-13 44q49 21 76 42.5t40.5 51.5t19.5 77l21 144q2 12 2 35q0 109 -123 109q-55 0 -100 -23t-88 -69l-41 -292h-60l89 632h-202l8 53h468l-15 -53h-199l-39 -274q41 39 87 59
t104 20q83 0 127 -42z" />
    <glyph glyph-name="uni0403" unicode="&#x403;" horiz-adv-x="506" 
d="M222 632l-89 -632h-59l96 685l2 -1l-1 1h385l-17 -53h-317zM302 758l-11 34l199 96l20 -52z" />
    <glyph glyph-name="uni0404" unicode="&#x404;" horiz-adv-x="556" 
d="M241 579.5q-70 -65.5 -96 -198.5h273l-7 -51h-273q-4 -35 -4 -71q0 -108 48 -162.5t127 -54.5q49 0 85 15t75 43l29 -42q-84 -69 -192 -69q-107 0 -170.5 71.5t-63.5 203.5q0 106 35.5 205t109.5 163t183 64q55 0 94 -16t76 -48l-37 -38q-30 27 -60 39t-70 12
q-92 0 -162 -65.5z" />
    <glyph glyph-name="uni0405" unicode="&#x405;" horiz-adv-x="536" 
d="M429 676.5q45 -19.5 82 -57.5l-38 -36q-32 33 -67.5 47.5t-81.5 14.5q-70 0 -116 -35.5t-46 -92.5q0 -46 30.5 -74t107.5 -54q87 -27 131 -69t44 -116q0 -50 -26 -99.5t-83 -82.5t-145 -33q-68 0 -118.5 23t-89.5 65l39 36q33 -36 73.5 -54.5t96.5 -18.5q61 0 104.5 22.5
t65.5 59.5t22 80q0 51 -32 82.5t-108 57.5q-91 28 -131.5 68t-40.5 105q0 42 24.5 84t74.5 69.5t123 27.5q60 0 105 -19.5z" />
    <glyph glyph-name="uni0406" unicode="&#x406;" horiz-adv-x="281" 
d="M74 0l96 685h60l-96 -685h-60z" />
    <glyph glyph-name="uni0407" unicode="&#x407;" horiz-adv-x="281" 
d="M74 0l96 685h60l-96 -685h-60zM155 857.5q10 -10.5 10 -25.5q0 -19 -11.5 -31t-30.5 -12q-16 0 -26.5 10.5t-10.5 25.5q0 19 12.5 31t30.5 12q16 0 26 -10.5zM343.5 857.5q10.5 -10.5 10.5 -25.5q0 -18 -12 -30.5t-30 -12.5q-16 0 -26.5 10.5t-10.5 25.5q0 19 12 31
t30 12q16 0 26.5 -10.5z" />
    <glyph glyph-name="uni0408" unicode="&#x408;" horiz-adv-x="289" 
d="M130.5 -9q-20.5 -38 -56.5 -62.5t-97 -47.5l-13 45q49 20 76 41.5t40.5 51.5t20.5 78l83 588h59l-83 -595q-9 -61 -29.5 -99z" />
    <glyph glyph-name="uni0409" unicode="&#x409;" horiz-adv-x="885" 
d="M789 377q57 -46 57 -137q0 -62 -27 -116.5t-89.5 -89t-161.5 -34.5h-158l89 633h-223l-67 -251q-44 -170 -69.5 -243t-54.5 -104t-82 -45l-9 50q35 11 54 34.5t40 87.5t62 218l81 305h335l-37 -262h98q105 0 162 -46zM736 107q47 57 47 133q0 70 -40 102t-118 32h-103
l-45 -324h104q108 0 155 57z" />
    <glyph glyph-name="uni040A" unicode="&#x40a;" horiz-adv-x="930" 
d="M831 352.5q58 -45.5 58 -127.5q0 -57 -27.5 -108t-90 -84t-160.5 -33h-158l49 349h-320l-49 -349h-59l96 685h59l-40 -287h320l40 287h60l-40 -287h100q104 0 162 -45.5zM743.5 77q45.5 27 64 66.5t18.5 80.5q0 61 -40.5 93t-117.5 32h-106l-42 -299h104q74 0 119.5 27z
" />
    <glyph glyph-name="uni040B" unicode="&#x40b;" horiz-adv-x="681" 
d="M591 395.5q44 -41.5 44 -116.5q0 -20 -3 -41l-33 -238h-60l34 240q2 12 2 35q0 109 -122 109q-56 0 -101 -23t-88 -70l-41 -291h-59l88 632h-186l8 53h468l-15 -53h-215l-39 -274q40 39 86.5 59t104.5 20q83 0 127 -41.5z" />
    <glyph glyph-name="uni040C" unicode="&#x40c;" horiz-adv-x="558" 
d="M554.5 635q-14.5 -8 -31.5 -27t-45 -58l-132 -188l170 -362h-62l-158 336h-116l-47 -336h-59l96 685h59l-42 -299h112l137 196q29 41 49 62t39 31t51 21l17 -46q-23 -7 -37.5 -15zM285 758l-11 34l199 96l20 -52z" />
    <glyph glyph-name="uni040D" unicode="&#x40d;" horiz-adv-x="670" 
d="M463 0l52 366q20 144 44 259l-404 -625h-81l96 685h59l-51 -367q-21 -146 -44 -259l404 626h81l-97 -685h-59zM498 758l-187 78l33 52l174 -96z" />
    <glyph glyph-name="uni040E" unicode="&#x40e;" horiz-adv-x="516" 
d="M232 79q-30 -37 -66 -56.5t-96 -33.5l-7 45q48 12 76 27.5t52 45t54 86.5l-19 -1l-158 493h61l138 -454l243 454h63l-272 -497q-39 -72 -69 -109zM250 805q-32 26 -35 69l40 5q6 -27 25.5 -39.5t54.5 -12.5q75 0 100 55l38 -12q-12 -42 -49.5 -66.5t-89.5 -24.5t-84 26z
" />
    <glyph glyph-name="uni040F" unicode="&#x40f;" horiz-adv-x="656" 
d="M320 0l-21 -145h-45l7 145h-187l96 685h59l-88 -634h316l89 634h59l-96 -685h-189z" />
    <glyph glyph-name="uni0410" unicode="&#x410;" horiz-adv-x="562" 
d="M127 187l-87 -187h-61l324 685h75l131 -685h-62l-33 187h-287zM334 636l-184 -398h255z" />
    <glyph glyph-name="uni0411" unicode="&#x411;" horiz-adv-x="566" 
d="M461.5 373q57.5 -45 57.5 -131q0 -62 -26.5 -117t-88 -90t-161.5 -35h-169l96 685v0h345l-16 -51h-277l-30 -216h108q104 0 161.5 -45zM410 107q46 57 46 135q0 127 -158 127h-113l-44 -319h114q109 0 155 57z" />
    <glyph glyph-name="uni0412" unicode="&#x412;" horiz-adv-x="595" 
d="M495.5 319.5q38.5 -34.5 38.5 -101.5q0 -93 -64 -155.5t-209 -62.5h-187l96 685h170q96 0 151.5 -38t55.5 -112q0 -66 -39.5 -112.5t-114.5 -60.5q64 -8 102.5 -42.5zM187 384h132q54 0 92 20.5t57 54.5t19 74q0 102 -145 102h-120zM425 98q47 48 47 121q0 60 -39.5 88.5
t-108.5 28.5h-143l-40 -286h124q113 0 160 48z" />
    <glyph glyph-name="uni0413" unicode="&#x413;" horiz-adv-x="506" 
d="M222 632l-89 -632h-59l96 685l2 -1l-1 1h385l-17 -53h-317z" />
    <glyph glyph-name="uni0414" unicode="&#x414;" horiz-adv-x="595" 
d="M502 51l-28 -196h-46l7 145h-412l-39 -145h-45l28 196h39q28 25 49.5 62t46 110.5t60.5 209.5l67 252h318l-89 -634h44zM480 634h-205l-53 -206q-35 -133 -59.5 -204.5t-47 -109.5t-54.5 -63h338z" />
    <glyph glyph-name="uni0415" unicode="&#x415;" horiz-adv-x="509" 
d="M222 635l-36 -255h242l-6 -50h-242l-39 -280h293l-8 -50h-352l96 685h346l-14 -50h-280z" />
    <glyph glyph-name="uni0416" unicode="&#x416;" horiz-adv-x="774" 
d="M750.5 619q-21.5 -20 -60.5 -78l-118 -179l155 -362h-63l-142 336h-93l-47 -336h-58l47 336h-91l-233 -336h-69l255 364l-90 193q-16 35 -27 52t-23 25t-33 15l18 47q30 -10 47.5 -20.5t32 -31t32.5 -59.5l93 -199h95l43 299h57l-42 -299h89l123 187q29 43 49 66t39.5 35
t49.5 22l17 -46q-31 -11 -52.5 -31z" />
    <glyph glyph-name="uni0417" unicode="&#x417;" horiz-adv-x="518" 
d="M435.5 655q45.5 -41 45.5 -109q0 -67 -40.5 -114.5t-117.5 -63.5q59 -6 96.5 -45t37.5 -107q0 -58 -30.5 -110.5t-88.5 -84.5t-137 -32q-63 0 -115.5 24t-89.5 70l40 32q61 -74 165 -74q67 0 111 28t63.5 69t19.5 80q0 60 -38.5 92t-112.5 31h-64l14 51h52q56 0 95 22
t58.5 56.5t19.5 72.5q0 47 -30.5 74.5t-89.5 27.5q-89 0 -180 -71l-31 39q52 42 105 62.5t111 20.5q86 0 131.5 -41z" />
    <glyph glyph-name="uni0418" unicode="&#x418;" horiz-adv-x="670" 
d="M463 0l52 366q20 144 44 259l-404 -625h-81l96 685h59l-51 -367q-21 -146 -44 -259l404 626h81l-97 -685h-59z" />
    <glyph glyph-name="uni0419" unicode="&#x419;" horiz-adv-x="670" 
d="M463 0l52 366q20 144 44 259l-404 -625h-81l96 685h59l-51 -367q-21 -146 -44 -259l404 626h81l-97 -685h-59zM322 805q-32 26 -35 69l40 5q6 -27 25.5 -39.5t54.5 -12.5q75 0 100 55l38 -12q-12 -42 -49.5 -66.5t-89.5 -24.5t-84 26z" />
    <glyph glyph-name="uni041A" unicode="&#x41a;" horiz-adv-x="558" 
d="M554.5 635q-14.5 -8 -31.5 -27t-45 -58l-132 -188l170 -362h-62l-158 336h-116l-47 -336h-59l96 685h59l-42 -299h112l137 196q29 41 49 62t39 31t51 21l17 -46q-23 -7 -37.5 -15z" />
    <glyph glyph-name="uni041B" unicode="&#x41b;" horiz-adv-x="642" 
d="M435 0l89 633h-248l-67 -251q-44 -170 -69.5 -243t-54.5 -104t-82 -45l-9 50q35 11 54 34.5t40 87.5t62 218l81 305h360l-97 -685h-59z" />
    <glyph glyph-name="uni041C" unicode="&#x41c;" horiz-adv-x="776" 
d="M604 0l15 330q7 182 17 298l-249 -547h-57l-101 545q-10 -64 -64 -298l-76 -328h-57l161 685h79l96 -534l238 534h86l-31 -685h-57z" />
    <glyph glyph-name="uni041D" unicode="&#x41d;" horiz-adv-x="667" 
d="M180 335l-47 -335h-59l96 685h59l-42 -299h328l42 299h59l-96 -685h-60l48 335h-328z" />
    <glyph glyph-name="uni041E" unicode="&#x41e;" horiz-adv-x="688" 
d="M577 625.5q63 -70.5 63 -201.5q0 -100 -33 -200t-107.5 -167.5t-190.5 -67.5q-110 0 -174 71t-64 202q0 97 34 197t109 168.5t190 68.5q110 0 173 -70.5zM245 583.5q-60 -61.5 -86 -150.5t-26 -177q0 -107 47 -161.5t130 -54.5q98 0 158 62t85 151.5t25 178.5
q0 106 -46 159.5t-131 53.5q-96 0 -156 -61.5z" />
    <glyph glyph-name="uni041F" unicode="&#x41f;" horiz-adv-x="662" 
d="M455 0l89 633h-322l-89 -633h-59l96 685h441l-96 -685h-60z" />
    <glyph glyph-name="uni0420" unicode="&#x420;" horiz-adv-x="567" 
d="M497 642q59 -43 59 -130q0 -105 -67.5 -175t-217.5 -70h-101l-37 -267h-59l96 685h158q110 0 169 -43zM444 371q50 55 50 141q0 66 -43 95t-127 29h-102l-45 -320h97q120 0 170 55z" />
    <glyph glyph-name="uni0421" unicode="&#x421;" horiz-adv-x="548" 
d="M494 680q40 -16 75 -48l-37 -38q-30 27 -60 39t-69 12q-94 0 -155 -59.5t-88 -148t-27 -177.5q0 -109 48 -163.5t128 -54.5q49 0 84.5 15t75.5 44l28 -43q-85 -69 -192 -69t-170.5 71.5t-63.5 202.5q0 100 34.5 199.5t108.5 166.5t185 67q55 0 95 -16z" />
    <glyph glyph-name="uni0422" unicode="&#x422;" horiz-adv-x="492" 
d="M328 632l-89 -632h-60l89 632h-202l8 53h468l-15 -53h-199z" />
    <glyph glyph-name="uni0423" unicode="&#x423;" horiz-adv-x="516" 
d="M232 79q-30 -37 -66 -56.5t-96 -33.5l-7 45q48 12 76 27.5t52 45t54 86.5l-19 -1l-158 493h61l138 -454l243 454h63l-272 -497q-39 -72 -69 -109z" />
    <glyph glyph-name="uni0424" unicode="&#x424;" horiz-adv-x="798" 
d="M683.5 155.5q-84.5 -102.5 -285.5 -109.5l-10 -71h-59l10 71q-138 6 -211.5 73t-73.5 174q0 90 33.5 168.5t116 131.5t221.5 58l9 68h59l-10 -69q138 -5 211.5 -72t73.5 -175q0 -145 -84.5 -247.5zM182 506.5q-67 -87.5 -67 -213.5q0 -90 59 -142.5t173 -56.5l73 510
q-171 -10 -238 -97.5zM641 191.5q67 87.5 67 212.5q0 91 -59 143.5t-174 56.5l-72 -511q171 11 238 98.5z" />
    <glyph glyph-name="uni0425" unicode="&#x425;" horiz-adv-x="509" 
d="M464 0h-65l-135 327l-225 -327h-66l259 369l1 1l-143 315h65l116 -275l196 275h66l-228 -314l-2 -2z" />
    <glyph glyph-name="uni0426" unicode="&#x426;" horiz-adv-x="688" 
d="M587 51l-27 -196h-46l7 145h-447l96 685h59l-88 -634h316l89 634h59l-89 -634h71z" />
    <glyph glyph-name="uni0427" unicode="&#x427;" horiz-adv-x="591" 
d="M444 0h-60l41 292q-45 -35 -90 -52t-98 -17q-79 0 -125.5 43.5t-46.5 118.5q0 12 2 36l37 264h60l-37 -264q-2 -20 -2 -31q0 -56 32.5 -85t93.5 -29q54 0 101.5 21t81.5 56l47 332h59z" />
    <glyph glyph-name="uni0428" unicode="&#x428;" horiz-adv-x="907" 
d="M74 0l96 685h59l-89 -634h256l89 634h56l-89 -634h256l89 634h59l-97 -685h-685z" />
    <glyph glyph-name="uni0429" unicode="&#x429;" horiz-adv-x="907" 
d="M838 51l-28 -196h-46l8 145h-698l96 685h59l-89 -634h256l89 634h56l-89 -634h256l89 634h59l-90 -634h72z" />
    <glyph glyph-name="uni042A" unicode="&#x42a;" horiz-adv-x="612" 
d="M516 377q57 -46 57 -137q0 -62 -27.5 -116.5t-89.5 -89t-161 -34.5h-169l90 633h-164l7 52h224l-37 -262h108q105 0 162 -46zM463 107q47 57 47 133q0 70 -40 101.5t-118 31.5h-113l-45 -323h114q108 0 155 57z" />
    <glyph glyph-name="uni042B" unicode="&#x42b;" horiz-adv-x="794" 
d="M452.5 377q57.5 -46 57.5 -137q0 -62 -27.5 -116.5t-89.5 -89t-161 -34.5h-158l96 685h59l-36 -262h97q105 0 162.5 -46zM646 0h-59l96 685h60zM400 107q47 57 47 133q0 70 -40.5 102t-118.5 32h-102l-45 -324h104q108 0 155 57z" />
    <glyph glyph-name="uni042C" unicode="&#x42c;" horiz-adv-x="559" 
d="M462.5 377q57.5 -46 57.5 -137q0 -62 -27.5 -116.5t-89.5 -89t-161 -34.5h-168l96 685h59l-36 -262h107q105 0 162.5 -46zM410 107q47 57 47 133q0 70 -40.5 102t-118.5 32h-112l-45 -324h114q108 0 155 57z" />
    <glyph glyph-name="uni042D" unicode="&#x42d;" horiz-adv-x="534" 
d="M431.5 633.5q54.5 -62.5 54.5 -191.5q0 -107 -28.5 -210t-97 -173t-178.5 -70q-60 0 -102 20t-77 54l36 38q32 -30 63.5 -44.5t79.5 -14.5q103 0 159 83t75 205h-281l7 51h280q3 35 3 65q0 102 -38.5 150.5t-108.5 48.5q-48 0 -85 -12.5t-84 -43.5l-28 39q47 34 95.5 51
t104.5 17q96 0 150.5 -62.5z" />
    <glyph glyph-name="uni042E" unicode="&#x42e;" horiz-adv-x="874" 
d="M766 627q60 -69 60 -199q0 -102 -32 -202.5t-104.5 -168.5t-185.5 -68q-107 0 -166 70t-59 201q0 38 4 71h-103l-47 -331h-59l96 685h59l-42 -303h104q26 132 101.5 223t205.5 91q108 0 168 -69zM658 103q58 63 82 153t24 180q0 105 -43 157t-124 52q-92 0 -149.5 -62.5
t-83 -153t-25.5 -178.5q0 -106 44 -158.5t123 -52.5q94 0 152 63z" />
    <glyph glyph-name="uni042F" unicode="&#x42f;" horiz-adv-x="589" 
d="M441 0h-59l40 285l-172 1l-180 -286h-70l192 298q-52 18 -82 57.5t-30 94.5q0 58 25 110.5t89 88.5t172 36h172zM363 636q-124 0 -172 -54t-48 -131q0 -54 36 -85.5t94 -31.5h156l42 302h-108z" />
    <glyph glyph-name="uni0430" unicode="&#x430;" 
d="M414.5 523.5q38.5 -10.5 82.5 -32.5l-57 -377q-2 -24 -2 -31q0 -23 8 -34.5t25 -18.5l-17 -41q-35 7 -52.5 28.5t-17.5 66.5q-30 -44 -71.5 -69.5t-89.5 -25.5q-78 0 -121.5 54t-43.5 149q0 78 28 157t88.5 132t152.5 53q49 0 87.5 -10.5zM210 441q-47 -46 -69 -114
t-22 -135q0 -76 29.5 -115.5t84.5 -39.5q46 0 83.5 28.5t72.5 82.5l47 315q-50 24 -107 24q-72 0 -119 -46z" />
    <glyph glyph-name="uni0431" unicode="&#x431;" horiz-adv-x="571" 
d="M464.5 447q43.5 -51 43.5 -143q0 -72 -24.5 -144t-79.5 -121.5t-142 -49.5q-89 0 -141 61t-52 179q0 104 17.5 188t72.5 152t159 98q60 18 91.5 32.5t68.5 43.5l24 -44q-30 -25 -66 -41.5t-99 -35.5q-60 -18 -100.5 -47.5t-66.5 -79.5t-39 -130q35 57 91 95t120 38
q79 0 122.5 -51zM371.5 79.5q41.5 41.5 59 102.5t17.5 122q0 73 -29 109t-84 36q-61 0 -117 -43t-92 -113q-2 -20 -2 -66q0 -91 36.5 -140t102.5 -49q67 0 108.5 41.5z" />
    <glyph glyph-name="uni0432" unicode="&#x432;" horiz-adv-x="541" 
d="M439.5 503.5q39.5 -30.5 39.5 -82.5q0 -90 -108 -134q45 -15 72.5 -47t27.5 -76q0 -56 -27.5 -95.5t-72.5 -59.5t-98 -20q-96 0 -154.5 59t-58.5 166q0 77 32 150.5t94.5 121.5t148.5 48q65 0 104.5 -30.5zM197.5 430q-54.5 -58 -71.5 -144q146 5 221 36.5t75 94.5
q0 34 -23.5 52.5t-67.5 18.5q-79 0 -133.5 -58zM121 242q-2 -18 -2 -27q0 -80 39.5 -129t112.5 -49q63 0 101.5 34.5t38.5 92.5q0 41 -24 65.5t-62 40.5q-77 -22 -204 -28z" />
    <glyph glyph-name="uni0433" unicode="&#x433;" horiz-adv-x="461" 
d="M374 500q42 -34 42 -88q0 -53 -35 -93t-134 -66q-67 -18 -101 -38.5t-45 -41.5t-11 -48q0 -40 30.5 -63t80.5 -23q91 0 168 56l30 -39q-88 -67 -201 -67q-73 0 -121 36.5t-48 99.5q0 58 42.5 100.5t149.5 71.5q82 22 108.5 50t26.5 65q0 34 -26.5 54t-69.5 20
q-38 0 -72 -12t-71 -38l-27 39q83 59 174 59q68 0 110 -34z" />
    <glyph glyph-name="uni0434" unicode="&#x434;" horiz-adv-x="555" 
d="M398 689.5q62 -41.5 80.5 -109.5t18.5 -188q0 -47 -8 -108q-20 -142 -85 -218.5t-163 -76.5q-84 0 -133.5 55t-49.5 148q0 76 23.5 145.5t74.5 115t130 45.5q49 0 88 -22.5t65 -64.5q1 102 -15.5 157.5t-69 87t-160.5 41.5l14 47q128 -13 190 -54.5zM158.5 374
q-41.5 -76 -41.5 -183q0 -73 32.5 -113.5t91.5 -40.5q73 0 123 66t67 188q3 17 5 59q-26 49 -62 74.5t-81 25.5q-93 0 -134.5 -76z" />
    <glyph glyph-name="uni0435" unicode="&#x435;" horiz-adv-x="520" 
d="M386.5 266q-94.5 -47 -266.5 -60l-1 -6q0 -82 36 -121.5t98 -39.5q41 0 75.5 13t72.5 40l26 -41q-42 -31 -85.5 -46.5t-92.5 -15.5q-90 0 -140 55t-50 155q0 79 28 156t87.5 128t147.5 51q74 0 116.5 -35.5t42.5 -90.5q0 -95 -94.5 -142zM183.5 416.5
q-49.5 -69.5 -60.5 -165.5q150 12 224 49t74 106q0 34 -25 57t-75 23q-88 0 -137.5 -69.5z" />
    <glyph glyph-name="uni0436" unicode="&#x436;" horiz-adv-x="700" 
d="M644.5 469.5q-15.5 -9.5 -30.5 -28t-35 -54.5l-63 -114l115 -273h-61l-103 253h-88l-36 -253h-55l36 253h-87l-175 -253h-64l195 278l-60 140q-15 35 -27.5 48t-40.5 24l18 44q39 -13 58.5 -31.5t36.5 -56.5l64 -147h88l32 224h55l-32 -224h87l69 124q30 53 56 74.5
t72 36.5l18 -45q-27 -10 -42.5 -19.5z" />
    <glyph glyph-name="uni0437" unicode="&#x437;" horiz-adv-x="474" 
d="M365 499.5q44 -34.5 44 -91.5q0 -46 -29.5 -82t-97.5 -48q56 -7 88 -37.5t32 -82.5q0 -43 -22.5 -81.5t-71.5 -63t-122 -24.5q-112 0 -184 67l34 36q31 -26 67 -40t83 -14q81 0 118 35t37 86q0 92 -139 92h-63l11 47h51q72 0 110 30t38 79q0 38 -27.5 59t-76.5 21
q-42 0 -75 -11.5t-74 -35.5l-27 38q43 28 87 42t96 14q69 0 113 -34.5z" />
    <glyph glyph-name="uni0438" unicode="&#x438;" horiz-adv-x="577" 
d="M385 0l14 133q-36 -67 -84.5 -105.5t-108.5 -38.5q-59 0 -91.5 33t-32.5 94q0 11 2 35l53 372h57l-52 -370q-2 -24 -2 -34q0 -43 19.5 -62.5t57.5 -19.5q102 0 188 166l44 320h58l-74 -523h-48z" />
    <glyph glyph-name="uni0439" unicode="&#x439;" horiz-adv-x="577" 
d="M385 0l14 133q-36 -67 -84.5 -105.5t-108.5 -38.5q-59 0 -91.5 33t-32.5 94q0 11 2 35l53 372h57l-52 -370q-2 -24 -2 -34q0 -43 19.5 -62.5t57.5 -19.5q102 0 188 166l44 320h58l-74 -523h-48zM264 679q-32 26 -35 69l40 5q6 -28 25.5 -40.5t54.5 -12.5q75 0 100 56
l38 -12q-12 -43 -49.5 -67t-89.5 -24t-84 26z" />
    <glyph glyph-name="uni043A" unicode="&#x43a;" horiz-adv-x="496" 
d="M427.5 458q-18.5 -18 -55.5 -71l-79 -111l144 -276h-63l-131 253h-81l-36 -253h-57l74 523h57l-32 -224h79l87 124q39 55 63 76t65 35l19 -45q-35 -13 -53.5 -31z" />
    <glyph glyph-name="uni043B" unicode="&#x43b;" horiz-adv-x="566" 
d="M366 0l66 474h-203l-38 -177q-27 -126 -45.5 -182t-45.5 -83.5t-79 -41.5l-9 49q34 10 51.5 31t31 68.5t38.5 163.5l48 221h316l-74 -523h-57z" />
    <glyph glyph-name="uni043C" unicode="&#x43c;" horiz-adv-x="656" 
d="M495 0l18 307q3 66 13 158l-201 -400h-56l-85 401q-12 -77 -29 -163l-68 -303h-56l120 523h72l82 -399l199 399h75l-28 -523h-56z" />
    <glyph glyph-name="uni043D" unicode="&#x43d;" horiz-adv-x="585" 
d="M161 246l-35 -246h-57l74 523h57l-32 -228h259l32 228h58l-74 -523h-58l35 246h-259z" />
    <glyph glyph-name="uni043E" unicode="&#x43e;" horiz-adv-x="569" 
d="M460.5 479q49.5 -55 49.5 -155q0 -74 -26 -151t-84.5 -130.5t-150.5 -53.5q-91 0 -140.5 56t-49.5 156q0 75 26.5 151.5t85 129t150.5 52.5q90 0 139.5 -55zM202 439.5q-45 -46.5 -64 -113.5t-19 -130q0 -78 33.5 -118t97.5 -40q71 0 115.5 46t64 113t19.5 131
q0 78 -33.5 118t-96.5 40q-72 0 -117 -46.5z" />
    <glyph glyph-name="uni043F" unicode="&#x43f;" horiz-adv-x="582" 
d="M193 474l-67 -474h-57l74 523h371l-74 -523h-58l67 474h-256z" />
    <glyph glyph-name="uni0440" unicode="&#x440;" horiz-adv-x="578" 
d="M472 483q41 -51 41 -147q0 -80 -26.5 -159.5t-87 -133.5t-155.5 -54q-60 0 -117 20l-28 -208l-59 -8l103 730h49l-6 -72q39 42 80.5 62.5t88.5 20.5q76 0 117 -51zM258.5 463.5q-37.5 -22.5 -76.5 -65.5l-47 -340q27 -11 52 -16t59 -5q73 0 120 48t67.5 117.5t20.5 137.5
q0 146 -112 146q-46 0 -83.5 -22.5z" />
    <glyph glyph-name="uni0441" unicode="&#x441;" horiz-adv-x="467" 
d="M461 480l-33 -36q-22 21 -47.5 31t-59.5 10q-71 0 -116 -45t-65 -111t-20 -132q0 -78 35 -117.5t96 -39.5q36 0 66.5 11t62.5 33l25 -41q-71 -54 -155 -54q-90 0 -140 55t-50 156q0 76 27 153t85.5 129t147.5 52q86 0 141 -54z" />
    <glyph glyph-name="uni0442" unicode="&#x442;" horiz-adv-x="849" 
d="M737.5 501q29.5 -33 29.5 -92q0 -20 -4 -37l-52 -372h-58l52 367q3 14 3 36q0 82 -68 82q-47 0 -90.5 -45.5t-86.5 -124.5l-45 -315h-57l52 367q3 21 3 36q0 82 -69 82q-47 0 -90.5 -46t-86.5 -126l-44 -313h-57l74 523h48l-13 -129q82 140 185 140q51 0 81 -34t29 -95
q83 129 183 129q52 0 81.5 -33z" />
    <glyph glyph-name="uni0443" unicode="&#x443;" horiz-adv-x="465" 
d="M142 -140q-53 -46 -147 -64l-3 45q53 13 85.5 32.5t54.5 48t48 79.5l-21 -1l-107 523h61l90 -479l223 479h61l-249 -527q-43 -90 -96 -136z" />
    <glyph glyph-name="uni0444" unicode="&#x444;" horiz-adv-x="799" 
d="M455 464q31 35 66.5 52.5t71.5 17.5q144 0 144 -176q0 -82 -20.5 -166.5t-68 -143.5t-123.5 -59q-44 0 -74 19t-52 56l-37 -262l-58 -9l37 266q-59 -70 -138 -70q-68 0 -103 52t-35 144q0 79 19.5 158.5t67 135t124.5 55.5q83 0 122 -74l40 283l55 -7zM190 437.5
q-35 -48.5 -50 -117.5t-15 -136q0 -147 90 -147q72 0 136 81l40 291q-20 38 -46.5 57.5t-62.5 19.5q-57 0 -92 -48.5zM446 404l-40 -291q21 -38 47.5 -57t62.5 -19q58 0 94 53.5t51 127t15 138.5q0 130 -92 130q-75 0 -138 -82z" />
    <glyph glyph-name="uni0445" unicode="&#x445;" horiz-adv-x="456" 
d="M408 0h-65l-118 242l-186 -242h-66l223 281l-125 242h64l100 -208l159 208h66l-195 -247z" />
    <glyph glyph-name="uni0446" unicode="&#x446;" horiz-adv-x="580" 
d="M481 -145h-45l7 145h-31h-27l14 133q-36 -67 -84.5 -105.5t-108.5 -38.5q-59 0 -91.5 33t-32.5 94q0 11 2 35l53 372h57l-52 -370q-2 -24 -2 -34q0 -43 19.5 -62.5t57.5 -19.5q102 0 188 166l44 320h58l-67 -474h68z" />
    <glyph glyph-name="uni0447" unicode="&#x447;" horiz-adv-x="538" 
d="M338 0l36 253q-73 -79 -173 -79q-62 0 -98 32.5t-36 92.5q0 9 2 31l28 193h58l-28 -190q-2 -20 -2 -28q0 -82 90 -84q46 0 90.5 25.5t76.5 69.5l30 207h57l-74 -523h-57z" />
    <glyph glyph-name="uni0448" unicode="&#x448;" horiz-adv-x="849" 
d="M706 0h-49l13 130q-83 -141 -185 -141q-51 0 -81 34t-29 96q-81 -130 -183 -130q-51 0 -80.5 33.5t-29.5 92.5q0 18 3 37l52 371h58l-52 -367q-2 -13 -2 -36q0 -82 68 -82q47 0 90 45t87 125l45 315h57l-52 -367q-2 -13 -2 -36q0 -82 68 -82q47 0 90 45.5t87 127.5
l44 312h57z" />
    <glyph glyph-name="uni0449" unicode="&#x449;" horiz-adv-x="852" 
d="M754 -145h-45l7 145h-59l13 130q-83 -141 -185 -141q-51 0 -81 34t-29 96q-81 -130 -183 -130q-51 0 -80.5 33.5t-29.5 92.5q0 18 3 37l52 371h58l-52 -367q-2 -13 -2 -36q0 -82 68 -82q47 0 90 45t87 125l45 315h57l-52 -367q-2 -13 -2 -36q0 -82 68 -82q47 0 90 45.5
t87 127.5l44 312h57l-67 -474h68z" />
    <glyph glyph-name="uni044A" unicode="&#x44a;" horiz-adv-x="547" 
d="M455 306.5q46 -40.5 46 -108.5q0 -53 -23.5 -100.5t-75 -78t-128.5 -30.5q-75 0 -156 27l65 460h-150l7 47h208l-25 -176h90q96 0 142 -40.5zM400.5 85q40.5 48 40.5 114q0 47 -31.5 74t-99.5 27h-94l-35 -249q50 -14 92 -14q87 0 127.5 48z" />
    <glyph glyph-name="uni044B" unicode="&#x44b;" horiz-adv-x="711" 
d="M398 306.5q45 -40.5 45 -108.5q0 -53 -23 -100.5t-73 -78t-125 -30.5q-72 0 -151 27l72 507h57l-25 -176h86q92 0 137 -40.5zM508 0l77 523h57l-74 -523h-60zM344 85q39 48 39 114q0 101 -126 101h-89l-35 -249q50 -14 87 -14q85 0 124 48z" />
    <glyph glyph-name="uni044C" unicode="&#x44c;" horiz-adv-x="500" 
d="M407 306.5q46 -40.5 46 -108.5q0 -53 -23.5 -100.5t-74.5 -78t-128 -30.5t-156 27l72 507h57l-25 -176h91q95 0 141 -40.5zM353 84.5q40 47.5 40 114.5q0 47 -31.5 74t-99.5 27h-94l-35 -249q50 -14 92 -14q88 0 128 47.5z" />
    <glyph glyph-name="uni044D" unicode="&#x44d;" horiz-adv-x="471" 
d="M366 481q47 -53 47 -147q0 -34 -6 -73q-17 -130 -79.5 -201t-162.5 -71q-50 0 -88 16t-70 44l33 36q27 -23 55.5 -35t67.5 -12q72 0 118 52.5t64 156.5h-233l7 46h232q3 24 3 44q0 73 -31 111t-90 38q-38 0 -70.5 -11t-67.5 -34l-25 38q79 55 165 55q84 0 131 -53z" />
    <glyph glyph-name="uni044E" unicode="&#x44e;" horiz-adv-x="760" 
d="M654.5 478.5q47.5 -55.5 47.5 -154.5q0 -73 -25.5 -150.5t-81.5 -131t-142 -53.5q-93 0 -136 62t-43 164q0 21 1 31h-114l-35 -246h-57l74 523h57l-32 -229h114q21 101 81 170.5t160 69.5q84 0 131.5 -55.5zM411.5 439.5q-42.5 -46.5 -61 -112.5t-18.5 -127
q0 -81 31.5 -121.5t90.5 -40.5q65 0 107.5 46.5t61 113t18.5 130.5q0 78 -31 118t-89 40q-67 0 -109.5 -46.5z" />
    <glyph glyph-name="uni044F" unicode="&#x44f;" horiz-adv-x="538" 
d="M467 516l-71 -516h-58l31 216h-137l-150 -216h-68l164 231q-43 15 -66 48.5t-23 75.5q0 76 53 127.5t175 51.5q65 0 150 -18zM186.5 449q-37.5 -38 -37.5 -93q0 -44 28.5 -69t80.5 -25h118l31 216q-49 9 -92 9q-91 0 -128.5 -38z" />
    <glyph glyph-name="uni0450" unicode="&#x450;" horiz-adv-x="520" 
d="M386.5 266q-94.5 -47 -266.5 -60l-1 -6q0 -82 36 -121.5t98 -39.5q41 0 75.5 13t72.5 40l26 -41q-42 -31 -85.5 -46.5t-92.5 -15.5q-90 0 -140 55t-50 155q0 79 28 156t87.5 128t147.5 51q74 0 116.5 -35.5t42.5 -90.5q0 -95 -94.5 -142zM183.5 416.5
q-49.5 -69.5 -60.5 -165.5q150 12 224 49t74 106q0 34 -25 57t-75 23q-88 0 -137.5 -69.5zM424 645l-183 85l33 52l172 -104z" />
    <glyph glyph-name="uni0451" unicode="&#x451;" horiz-adv-x="520" 
d="M386.5 266q-94.5 -47 -266.5 -60l-1 -6q0 -82 36 -121.5t98 -39.5q41 0 75.5 13t72.5 40l26 -41q-42 -31 -85.5 -46.5t-92.5 -15.5q-90 0 -140 55t-50 155q0 79 28 156t87.5 128t147.5 51q74 0 116.5 -35.5t42.5 -90.5q0 -95 -94.5 -142zM183.5 416.5
q-49.5 -69.5 -60.5 -165.5q150 12 224 49t74 106q0 34 -25 57t-75 23q-88 0 -137.5 -69.5zM264.5 731.5q10.5 -10.5 10.5 -25.5q0 -18 -12 -30.5t-30 -12.5q-17 0 -27 10.5t-10 25.5q0 18 12 30.5t30 12.5q16 0 26.5 -10.5zM453 731.5q10 -10.5 10 -25.5q0 -18 -12 -30.5
t-30 -12.5q-16 0 -26.5 10.5t-10.5 25.5q0 18 12 30.5t30 12.5q17 0 27 -10.5z" />
    <glyph glyph-name="uni0452" unicode="&#x452;" horiz-adv-x="590" 
d="M473.5 501.5q31.5 -32.5 31.5 -92.5q0 -17 -3 -37l-50 -355q-9 -68 -29 -108t-51.5 -64t-87.5 -49l-16 45q41 19 64.5 37.5t38.5 50t23 86.5l50 352q3 21 3 36q0 44 -20.5 63t-60.5 19q-97 0 -190 -172l-44 -313h-57l87 616h-75l7 47h75l10 73l58 7l-11 -80h170l-14 -47
h-163l-31 -221q37 65 88 102t107 37q59 0 90.5 -32.5z" />
    <glyph glyph-name="uni0453" unicode="&#x453;" horiz-adv-x="461" 
d="M374 500q42 -34 42 -88q0 -53 -35 -93t-134 -66q-67 -18 -101 -38.5t-45 -41.5t-11 -48q0 -40 30.5 -63t80.5 -23q91 0 168 56l30 -39q-88 -67 -201 -67q-73 0 -121 36.5t-48 99.5q0 58 42.5 100.5t149.5 71.5q82 22 108.5 50t26.5 65q0 34 -26.5 54t-69.5 20
q-38 0 -72 -12t-71 -38l-27 39q83 59 174 59q68 0 110 -34zM194 645l-14 34l201 103l19 -52z" />
    <glyph glyph-name="uni0454" unicode="&#x454;" horiz-adv-x="475" 
d="M398 521q35 -13 68 -41l-33 -37q-25 23 -52 33t-60 10q-70 0 -121.5 -50.5t-70.5 -143.5h242l-7 -46h-242q-2 -26 -2 -41q0 -73 31 -119.5t101 -47.5q35 0 65 11t65 35l25 -41q-70 -54 -156 -54q-89 0 -140 56.5t-51 158.5q0 32 4 60q12 82 47.5 143.5t89.5 94t119 32.5
q43 0 78 -13z" />
    <glyph glyph-name="uni0455" unicode="&#x455;" horiz-adv-x="461" 
d="M421 475l-32 -38q-55 49 -127 49q-58 0 -92 -24t-34 -65q0 -34 25 -55.5t89 -40.5q78 -24 112.5 -59.5t34.5 -94.5q0 -71 -55 -114.5t-148 -43.5q-61 0 -105.5 19t-79.5 52l36 37q62 -59 149 -59q68 0 105.5 29t37.5 77q0 41 -25.5 65t-94.5 46q-77 25 -108.5 57.5
t-31.5 82.5q0 37 22.5 69t64.5 51t98 19q91 0 159 -59z" />
    <glyph glyph-name="uni0456" unicode="&#x456;" horiz-adv-x="269" 
d="M230 742.5q11 -10.5 11 -27.5q0 -20 -12.5 -32.5t-33.5 -12.5q-18 0 -29 10.5t-11 27.5q0 20 13 32.5t33 12.5q18 0 29 -10.5zM69 0l74 523h58l-74 -523h-58z" />
    <glyph glyph-name="uni0457" unicode="&#x457;" horiz-adv-x="269" 
d="M69 0l74 523h58l-74 -523h-58zM124.5 731.5q10.5 -10.5 10.5 -25.5q0 -18 -12 -30.5t-30 -12.5q-17 0 -27 10.5t-10 25.5q0 18 12 30.5t30 12.5q16 0 26.5 -10.5zM313 731.5q10 -10.5 10 -25.5q0 -18 -12 -30.5t-30 -12.5q-16 0 -26.5 10.5t-10.5 25.5q0 18 12 30.5
t30 12.5q17 0 27 -10.5z" />
    <glyph glyph-name="uni0458" unicode="&#x458;" horiz-adv-x="267" 
d="M228 742.5q11 -10.5 11 -27.5q0 -20 -12.5 -32.5t-33.5 -12.5q-18 0 -29 10.5t-11 27.5q0 20 13 32.5t33 12.5q18 0 29 -10.5zM98 -91q-20 -40 -51.5 -64t-87.5 -49l-17 44q41 19 65 38t39.5 52t23.5 89l71 504h58l-72 -506q-9 -68 -29 -108z" />
    <glyph glyph-name="uni0459" unicode="&#x459;" horiz-adv-x="777" 
d="M548 347q92 0 137 -40.5t45 -108.5q0 -53 -23 -100.5t-73 -78t-125 -30.5q-72 0 -151 27l64 458h-193l-38 -177q-27 -126 -45.5 -182t-45.5 -83.5t-79 -41.5l-9 49q34 10 51.5 31t31 68.5t38.5 163.5l48 221h306l-25 -176h86zM420 51q50 -14 87 -14q85 0 124 48t39 114
q0 101 -126 101h-89z" />
    <glyph glyph-name="uni045A" unicode="&#x45a;" horiz-adv-x="800" 
d="M706 287.5q46 -38.5 46 -105.5q0 -47 -23.5 -91t-73 -73t-123.5 -29q-71 0 -152 27l38 262h-253l-39 -278h-57l74 523h57l-28 -198h252l28 198h58l-28 -197h85q93 0 139 -38.5zM653 80.5q39 43.5 39 101.5q0 48 -30 72.5t-98 24.5h-89l-32 -228q50 -14 87 -14
q84 0 123 43.5z" />
    <glyph glyph-name="uni045B" unicode="&#x45b;" horiz-adv-x="587" 
d="M474.5 501.5q31.5 -32.5 31.5 -92.5q0 -17 -3 -37l-53 -372h-57l52 368q2 12 2 34q0 44 -20.5 63.5t-60.5 19.5q-97 0 -190 -172l-43 -313h-58l87 616h-75l7 47h75l10 73l58 7l-11 -80h170l-14 -47h-163l-31 -221q37 66 88 102.5t107 36.5q60 0 91.5 -32.5z" />
    <glyph glyph-name="uni045C" unicode="&#x45c;" horiz-adv-x="496" 
d="M427.5 458q-18.5 -18 -55.5 -71l-79 -111l144 -276h-63l-131 253h-81l-36 -253h-57l74 523h57l-32 -224h79l87 124q39 55 63 76t65 35l19 -45q-35 -13 -53.5 -31zM211 645l-14 34l201 103l19 -52z" />
    <glyph glyph-name="uni045D" unicode="&#x45d;" horiz-adv-x="577" 
d="M385 0l14 133q-36 -67 -84.5 -105.5t-108.5 -38.5q-59 0 -91.5 33t-32.5 94q0 11 2 35l53 372h57l-52 -370q-2 -24 -2 -34q0 -43 19.5 -62.5t57.5 -19.5q102 0 188 166l44 320h58l-74 -523h-48zM440 645l-183 85l33 52l172 -104z" />
    <glyph glyph-name="uni045E" unicode="&#x45e;" horiz-adv-x="465" 
d="M142 -140q-53 -46 -147 -64l-3 45q53 13 85.5 32.5t54.5 48t48 79.5l-21 -1l-107 523h61l90 -479l223 479h61l-249 -527q-43 -90 -96 -136zM202 679q-32 26 -35 69l40 5q6 -28 25.5 -40.5t54.5 -12.5q75 0 100 56l38 -12q-12 -43 -49.5 -67t-89.5 -24t-84 26z" />
    <glyph glyph-name="uni045F" unicode="&#x45f;" horiz-adv-x="577" 
d="M433 0h-48l14 133q-32 -59 -74 -96.5t-92 -45.5l-19 -136h-44l8 136q-46 8 -71 40t-25 85q0 11 2 35l53 372h57l-52 -370q-2 -24 -2 -34q0 -43 19.5 -62.5t57.5 -19.5q102 0 188 166l44 320h58z" />
    <glyph glyph-name="uni0462" unicode="&#x462;" horiz-adv-x="665" 
d="M561 377.5q57 -45.5 57 -136.5q0 -62 -27.5 -116.5t-89.5 -89.5t-161 -35h-168l89 632h-195l8 53h469l-15 -53h-207l-30 -209h108q105 0 162 -45.5zM473 78.5q45 28.5 64 71.5t19 90q0 70 -40.5 102t-118.5 32h-113l-45 -324h114q75 0 120 28.5z" />
    <glyph glyph-name="uni0463" unicode="&#x463;" horiz-adv-x="508" 
d="M415.5 307q45.5 -40 45.5 -109q0 -53 -23.5 -100.5t-74.5 -78t-128 -30.5q-75 0 -156 27l66 458h-78l6 46h78l17 116l57 7l-17 -123h141l-14 -46h-134l-17 -127h90q96 0 141.5 -40zM361 84.5q40 47.5 40 114.5q0 101 -131 101h-93l-35 -249q50 -14 91 -14q88 0 128 47.5z
" />
    <glyph glyph-name="uni0472" unicode="&#x472;" horiz-adv-x="688" 
d="M576.5 625.5q63.5 -70.5 63.5 -202.5q0 -32 -7 -86q-15 -109 -60 -187.5t-113 -119.5t-151 -41q-110 0 -174 71t-64 201q0 39 6 82q16 111 61.5 190.5t114 121t149.5 41.5q111 0 174.5 -70.5zM238 576.5q-68 -68.5 -94 -203.5h433q2 21 2 58q0 108 -46.5 161t-131.5 53
q-95 0 -163 -68.5zM479 112q68 72 91 214h-434q-4 -33 -4 -70q0 -107 47.5 -161.5t130.5 -54.5q101 0 169 72z" />
    <glyph glyph-name="uni0473" unicode="&#x473;" horiz-adv-x="569" 
d="M460.5 479q49.5 -55 49.5 -155q0 -74 -26 -151t-84.5 -130.5t-150.5 -53.5q-91 0 -140.5 56t-49.5 156q0 75 26.5 151.5t85 129t150.5 52.5q90 0 139.5 -55zM193 429q-46 -57 -63 -140h317q2 17 2 39q0 78 -33.5 118t-96.5 40q-80 0 -126 -57zM377.5 97q46.5 59 63.5 145
h-319q-3 -24 -3 -46q0 -78 33.5 -118t97.5 -40q81 0 127.5 59z" />
    <glyph glyph-name="uni0474" unicode="&#x474;" horiz-adv-x="542" 
d="M527 554l-259 -554h-67l-126 685h64l105 -623l233 517q18 40 32.5 65t34.5 51l59 -14q-41 -50 -76 -127z" />
    <glyph glyph-name="uni0475" unicode="&#x475;" horiz-adv-x="467" 
d="M465.5 468q-16.5 -28 -38.5 -73l-187 -395h-75l-113 523h62l94 -470l170 365q21 47 34.5 71.5t28.5 40.5l60 -11q-19 -23 -35.5 -51z" />
    <glyph glyph-name="uni0490" unicode="&#x490;" horiz-adv-x="489" 
d="M539 632h-317l-89 -632h-59l96 685l2 -1l-1 1h327l16 117h58l-16 -117z" />
    <glyph glyph-name="uni0491" unicode="&#x491;" horiz-adv-x="458" 
d="M450 523l-14 -50h-243l-67 -473h-57l74 523h250l17 121h57z" />
    <glyph glyph-name="uni0492" unicode="&#x492;" horiz-adv-x="509" 
d="M193 401h167l-7 -46h-166l-50 -355h-59l49 355h-96l7 46h96l40 284l1 -1l-1 1h385l-16 -53h-317z" />
    <glyph glyph-name="uni0493" unicode="&#x493;" horiz-adv-x="468" 
d="M377 95l30 -39q-88 -67 -201 -67q-74 0 -122 36.5t-48 99.5q0 44 25 79t88 61l-97 26l8 44l141 -46q72 19 107 38.5t45.5 38.5t10.5 46q0 34 -26.5 54t-69.5 20q-38 0 -72 -12t-71 -38l-28 39q83 59 174 59q68 0 110.5 -34t42.5 -88q0 -48 -30 -84.5t-114 -61.5l112 -31
l-7 -46l-165 54q-75 -24 -98.5 -52t-23.5 -66q0 -40 30.5 -63t79.5 -23q91 0 169 56z" />
    <glyph glyph-name="uni0496" unicode="&#x496;" horiz-adv-x="774" 
d="M770 51l-28 -196h-46l8 145h-34h-6l-142 336h-93l-47 -336h-58l47 336h-91l-233 -336h-69l255 364l-90 193q-16 35 -27 52t-23 25t-33 15l18 47q30 -10 47.5 -20.5t32 -31t32.5 -59.5l93 -199h95l43 299h57l-42 -299h89l123 187q29 43 49 66t39.5 35t49.5 22l17 -46
q-31 -11 -52.5 -31t-60.5 -78l-118 -179l133 -311h65z" />
    <glyph glyph-name="uni0497" unicode="&#x497;" horiz-adv-x="700" 
d="M676 49l-27 -194h-45l7 145h-41l-103 253h-88l-36 -253h-55l36 253h-87l-175 -253h-64l195 278l-60 140q-15 35 -27.5 48t-40.5 24l18 44q39 -13 58.5 -31.5t36.5 -56.5l64 -147h88l32 224h55l-32 -224h87l69 124q30 53 56 74.5t72 36.5l18 -45q-27 -10 -42.5 -19.5
t-30.5 -28t-35 -54.5l-63 -114l94 -224h66z" />
    <glyph glyph-name="uni0498" unicode="&#x498;" horiz-adv-x="518" 
d="M419.5 323q37.5 -39 37.5 -107q0 -56 -27.5 -106t-80 -82.5t-124.5 -37.5q57 -41 57 -102q0 -52 -33.5 -84.5t-90.5 -32.5q-43 0 -83 22l20 37q30 -16 62 -16q34 0 54.5 22t20.5 58q0 55 -59 96q-111 11 -177 93l40 32q61 -74 165 -74q67 0 111 28t63.5 69t19.5 80
q0 60 -38.5 92t-112.5 31h-64l14 51h52q56 0 95 22t58.5 56.5t19.5 72.5q0 47 -30.5 74.5t-89.5 27.5q-89 0 -180 -71l-31 39q52 42 105 62.5t111 20.5q86 0 131.5 -41t45.5 -109q0 -67 -40.5 -114.5t-117.5 -63.5q59 -6 96.5 -45z" />
    <glyph glyph-name="uni0499" unicode="&#x499;" horiz-adv-x="474" 
d="M370 240.5q32 -30.5 32 -82.5q0 -41 -20.5 -78t-63.5 -61.5t-109 -28.5q56 -41 56 -102q0 -52 -33.5 -84.5t-90.5 -32.5q-43 0 -83 22l20 37q30 -16 62 -16q34 0 54.5 22t20.5 58q0 55 -59 96q-91 8 -154 66l34 36q31 -26 67 -40t83 -14q81 0 118 35t37 86q0 92 -139 92
h-63l11 47h51q72 0 110 30t38 79q0 38 -27.5 59t-76.5 21q-42 0 -75 -11.5t-74 -35.5l-27 38q43 28 87 42t96 14q69 0 113 -34.5t44 -91.5q0 -46 -29.5 -82t-97.5 -48q56 -7 88 -37.5z" />
    <glyph glyph-name="uni049A" unicode="&#x49a;" horiz-adv-x="558" 
d="M568 51l-28 -196h-46l8 145h-34h-14l-158 336h-116l-47 -336h-59l96 685h59l-42 -299h112l137 196q29 41 49 62t39 31t51 21l17 -46q-23 -7 -37.5 -15t-31.5 -27t-45 -58l-132 -188l146 -311h76z" />
    <glyph glyph-name="uni049B" unicode="&#x49b;" horiz-adv-x="496" 
d="M462 -145h-46l8 145h-50l-131 253h-81l-36 -253h-57l74 523h57l-32 -224h79l87 124q39 55 63 76t65 35l19 -45q-35 -13 -53.5 -31t-55.5 -71l-79 -111l118 -227h78z" />
    <glyph glyph-name="uni049C" unicode="&#x49c;" horiz-adv-x="558" 
d="M553.5 635q-14.5 -8 -31.5 -27t-44 -58l-127 -188l165 -362h-62l-153 336h-33l-25 -181h-40l25 181h-48l-47 -336h-59l96 685h59l-42 -299h48l25 179h40l-25 -179h29l132 196q28 41 48 62t39 31t52 21l17 -46q-24 -7 -38.5 -15z" />
    <glyph glyph-name="uni049D" unicode="&#x49d;" horiz-adv-x="518" 
d="M383 0l-120 253h-26l-18 -131h-35l18 131h-40l-36 -253h-57l74 523h57l-32 -224h41l16 119h35l-16 -119h23l76 124q33 53 58.5 74.5t69.5 36.5l19 -45q-38 -14 -58.5 -32.5t-50.5 -69.5l-68 -111l133 -276h-63z" />
    <glyph glyph-name="uni04A0" unicode="&#x4a0;" horiz-adv-x="597" 
d="M594 634.5q-14 -8.5 -31.5 -27.5t-44.5 -58l-133 -188l171 -361h-62l-159 335h-115l-48 -335h-59l89 633h-150l7 52h210l-42 -299h111l137 196q29 42 49.5 63t39 31t50.5 20l17 -46q-23 -7 -37 -15.5z" />
    <glyph glyph-name="uni04A1" unicode="&#x4a1;" horiz-adv-x="543" 
d="M484 0h-62l-131 253h-81l-37 -253h-57l67 476h-150l7 47h208l-32 -223h78l88 124q39 55 63 76t65 34l18 -45q-34 -13 -52 -30.5t-56 -71.5l-79 -111z" />
    <glyph glyph-name="uni04A2" unicode="&#x4a2;" horiz-adv-x="667" 
d="M598 51l-28 -196h-45l7 145h-72l48 335h-328l-47 -335h-59l96 685h59l-42 -299h328l42 299h59l-89 -634h71z" />
    <glyph glyph-name="uni04A3" unicode="&#x4a3;" horiz-adv-x="585" 
d="M491 -145h-45l7 145h-68l35 246h-259l-35 -246h-57l74 523h57l-32 -228h259l32 228h58l-67 -474h69z" />
    <glyph glyph-name="uni04AA" unicode="&#x4aa;" horiz-adv-x="548" 
d="M248 585.5q-61 -59.5 -88 -148t-27 -177.5q0 -109 48 -163.5t128 -54.5q49 0 84.5 15t75.5 44l28 -43q-77 -63 -174 -68q56 -41 56 -102q0 -52 -33.5 -84.5t-90.5 -32.5q-43 0 -83 22l20 37q30 -16 62 -16q34 0 54.5 22t20.5 58q0 29 -15.5 53t-45.5 45q-91 11 -144 81.5
t-53 189.5q0 100 34.5 199.5t108.5 166.5t185 67q55 0 95 -16t75 -48l-37 -38q-30 27 -60 39t-69 12q-94 0 -155 -59.5z" />
    <glyph glyph-name="uni04AB" unicode="&#x4ab;" horiz-adv-x="467" 
d="M205 440q-45 -45 -65 -111t-20 -132q0 -78 35 -117.5t96 -39.5q36 0 66.5 11t62.5 33l25 -41q-67 -50 -142 -54q56 -40 56 -101q0 -52 -33.5 -84.5t-90.5 -32.5q-43 0 -83 22l20 37q30 -16 62 -16q34 0 54.5 22t20.5 58q0 30 -15.5 53.5t-46.5 45.5q-70 12 -108.5 65.5
t-38.5 141.5q0 76 27 153t85.5 129t147.5 52q86 0 141 -54l-33 -36q-22 21 -47.5 31t-59.5 10q-71 0 -116 -45z" />
    <glyph glyph-name="uni04AC" unicode="&#x4ac;" horiz-adv-x="492" 
d="M527 632h-199l-82 -581h71l-28 -196h-46l8 145h-72l89 632h-202l8 53h468z" />
    <glyph glyph-name="uni04AD" unicode="&#x4ad;" horiz-adv-x="878" 
d="M759 -145h-45l7 145h-10h-58l52 367q3 14 3 36q0 82 -68 82q-47 0 -90.5 -45.5t-86.5 -124.5l-45 -315h-57l52 367q3 21 3 36q0 82 -69 82q-47 0 -90.5 -46t-86.5 -126l-44 -313h-57l74 523h48l-13 -129q82 140 185 140q51 0 81 -34t29 -95q83 129 183 129q52 0 81.5 -33
t29.5 -92q0 -20 -4 -37l-45 -323h68z" />
    <glyph glyph-name="uni04AE" unicode="&#x4ae;" horiz-adv-x="520" 
d="M254 0h-60l38 267l-159 418h63l131 -363l233 363h67l-275 -417z" />
    <glyph glyph-name="uni04AF" unicode="&#x4af;" horiz-adv-x="467" 
d="M200 -197l-58 -8l32 222l-122 506h62l95 -448l219 448h61l-259 -506z" />
    <glyph glyph-name="uni04B0" unicode="&#x4b0;" horiz-adv-x="520" 
d="M448 249h-159l-35 -249h-60l35 249h-82l7 47h67l-148 389h63l131 -363l233 363h67l-257 -389h144z" />
    <glyph glyph-name="uni04B1" unicode="&#x4b1;" horiz-adv-x="467" 
d="M333 4h-105l-28 -201l-58 -8l30 209h-105l7 46h95l-117 473h62l96 -439l218 439h61l-245 -473h96z" />
    <glyph glyph-name="uni04B2" unicode="&#x4b2;" horiz-adv-x="509" 
d="M497 51l-28 -196h-45l7 145h-34v6l-133 321l-225 -327h-66l259 369l1 1l-143 315h65l116 -275l196 275h66l-228 -314l-2 -2l139 -318h55z" />
    <glyph glyph-name="uni04B3" unicode="&#x4b3;" horiz-adv-x="456" 
d="M449 49l-27 -194h-45l7 145h-41l-118 242l-186 -242h-66l223 281l-125 242h64l100 -208l159 208h66l-195 -247l118 -227h66z" />
    <glyph glyph-name="uni04B6" unicode="&#x4b6;" horiz-adv-x="591" 
d="M522 51l-28 -196h-46l8 145h-72l41 292q-45 -35 -90 -52t-98 -17q-79 0 -125.5 43.5t-46.5 118.5q0 12 2 36l37 264h60l-37 -264q-2 -20 -2 -31q0 -56 32.5 -85t93.5 -29q54 0 101.5 21t81.5 56l47 332h59l-89 -634h71z" />
    <glyph glyph-name="uni04B7" unicode="&#x4b7;" horiz-adv-x="538" 
d="M444 -145h-45l7 145h-68l36 253q-73 -79 -173 -79q-62 0 -98 32.5t-36 92.5q0 9 2 31l28 193h58l-28 -190q-2 -20 -2 -28q0 -82 90 -84q46 0 90.5 25.5t76.5 69.5l30 207h57l-67 -474h69z" />
    <glyph glyph-name="uni04B8" unicode="&#x4b8;" horiz-adv-x="591" 
d="M444 0h-60l41 292q-35 -28 -69.5 -44t-73.5 -22l-15 -109h-43l14 106h-1q-79 0 -125.5 43.5t-46.5 118.5q0 12 2 36l37 264h60l-37 -264q-2 -20 -2 -31q0 -55 31.5 -83.5t89.5 -30.5l35 251h43l-35 -249q43 7 80 26.5t65 48.5l47 332h59z" />
    <glyph glyph-name="uni04B9" unicode="&#x4b9;" horiz-adv-x="538" 
d="M395 0h-57l36 253q-57 -61 -129 -75l-12 -85h-40l11 81h-3q-62 0 -98 32.5t-36 92.5q0 9 2 31l28 193h58l-28 -190q-2 -20 -2 -28q0 -81 86 -84l22 161h40l-22 -157q37 8 71 32t60 59l30 207h57z" />
    <glyph glyph-name="uni04BA" unicode="&#x4ba;" horiz-adv-x="591" 
d="M502 395q44 -42 44 -117q0 -21 -4 -41l-33 -237h-60l34 240q3 18 3 35q0 109 -123 109q-55 0 -100.5 -23t-88.5 -69l-41 -292h-59l96 685h59l-46 -327q41 39 87 59t104 20q84 0 128 -42z" />
    <glyph glyph-name="uni04BB" unicode="&#x4bb;" horiz-adv-x="571" 
d="M459.5 441.5q31.5 -32.5 31.5 -92.5q0 -17 -3 -37l-44 -312h-58l44 307q3 21 3 36q0 44 -20.5 63t-61.5 19q-52 0 -99.5 -46.5t-89.5 -125.5l-36 -253h-57l104 736l58 7l-58 -408q37 65 88 102t107 37q60 0 91.5 -32.5z" />
    <glyph glyph-name="uni04C0" unicode="&#x4c0;" horiz-adv-x="281" 
d="M74 0l96 685h60l-96 -685h-60z" />
    <glyph glyph-name="uni04C1" unicode="&#x4c1;" horiz-adv-x="774" 
d="M750.5 619q-21.5 -20 -60.5 -78l-118 -179l155 -362h-63l-142 336h-93l-47 -336h-58l47 336h-91l-233 -336h-69l255 364l-90 193q-16 35 -27 52t-23 25t-33 15l18 47q30 -10 47.5 -20.5t32 -31t32.5 -59.5l93 -199h95l43 299h57l-42 -299h89l123 187q29 43 49 66t39.5 35
t49.5 22l17 -46q-31 -11 -52.5 -31zM376 805q-32 26 -35 69l40 5q6 -27 25.5 -39.5t54.5 -12.5q75 0 100 55l38 -12q-12 -42 -49.5 -66.5t-89.5 -24.5t-84 26z" />
    <glyph glyph-name="uni04C2" unicode="&#x4c2;" horiz-adv-x="700" 
d="M644.5 469.5q-15.5 -9.5 -30.5 -28t-35 -54.5l-63 -114l115 -273h-61l-103 253h-88l-36 -253h-55l36 253h-87l-175 -253h-64l195 278l-60 140q-15 35 -27.5 48t-40.5 24l18 44q39 -13 58.5 -31.5t36.5 -56.5l64 -147h88l32 224h55l-32 -224h87l69 124q30 53 56 74.5
t72 36.5l18 -45q-27 -10 -42.5 -19.5zM326 679q-32 26 -35 69l40 5q6 -28 25.5 -40.5t54.5 -12.5q75 0 100 56l38 -12q-12 -43 -49.5 -67t-89.5 -24t-84 26z" />
    <glyph glyph-name="uni04CB" unicode="&#x4cb;" horiz-adv-x="591" 
d="M444 0h-55l-39 -145h-45l28 196h58l34 241q-45 -35 -90 -52t-98 -17q-79 0 -125.5 43.5t-46.5 118.5q0 12 2 36l37 264h60l-37 -264q-2 -20 -2 -31q0 -56 32.5 -85t93.5 -29q54 0 101.5 21t81.5 56l47 332h59z" />
    <glyph glyph-name="uni04CC" unicode="&#x4cc;" horiz-adv-x="538" 
d="M395 0h-57l36 253q-73 -79 -173 -79q-62 0 -98 32.5t-36 92.5q0 9 2 31l28 193h58l-28 -190q-2 -20 -2 -28q0 -82 90 -84q46 0 90.5 25.5t76.5 69.5l30 207h57zM310 -60l-8 -17v14l-12 -4l-10 101l22 -44v26l29 -68z" />
    <glyph glyph-name="uni04CF" unicode="&#x4cf;" horiz-adv-x="281" 
d="M132 73q0 -18 8 -26.5t26 -8.5q17 0 38 8l13 -43q-31 -14 -61 -14q-39 0 -60 20.5t-21 61.5q0 8 2 26l90 639l58 7l-92 -655q-1 -5 -1 -15z" />
    <glyph glyph-name="uni04D0" unicode="&#x4d0;" horiz-adv-x="562" 
d="M127 187l-87 -187h-61l324 685h75l131 -685h-62l-33 187h-287zM334 636l-184 -398h255zM267 805q-32 26 -35 69l40 5q6 -27 25.5 -39.5t54.5 -12.5q75 0 100 55l38 -12q-12 -42 -49.5 -66.5t-89.5 -24.5t-84 26z" />
    <glyph glyph-name="uni04D1" unicode="&#x4d1;" 
d="M414.5 523.5q38.5 -10.5 82.5 -32.5l-57 -377q-2 -24 -2 -31q0 -23 8 -34.5t25 -18.5l-17 -41q-35 7 -52.5 28.5t-17.5 66.5q-30 -44 -71.5 -69.5t-89.5 -25.5q-78 0 -121.5 54t-43.5 149q0 78 28 157t88.5 132t152.5 53q49 0 87.5 -10.5zM210 441q-47 -46 -69 -114
t-22 -135q0 -76 29.5 -115.5t84.5 -39.5q46 0 83.5 28.5t72.5 82.5l47 315q-50 24 -107 24q-72 0 -119 -46zM269 679q-32 26 -35 69l40 5q6 -28 25.5 -40.5t54.5 -12.5q75 0 100 56l38 -12q-12 -43 -49.5 -67t-89.5 -24t-84 26z" />
    <glyph glyph-name="uni04D2" unicode="&#x4d2;" horiz-adv-x="562" 
d="M127 187l-87 -187h-61l324 685h75l131 -685h-62l-33 187h-287zM334 636l-184 -398h255zM296 857.5q10 -10.5 10 -25.5q0 -19 -11.5 -31t-30.5 -12q-16 0 -26.5 10.5t-10.5 25.5q0 19 12.5 31t30.5 12q16 0 26 -10.5zM484.5 857.5q10.5 -10.5 10.5 -25.5q0 -18 -12 -30.5
t-30 -12.5q-16 0 -26.5 10.5t-10.5 25.5q0 19 12 31t30 12q16 0 26.5 -10.5z" />
    <glyph glyph-name="uni04D3" unicode="&#x4d3;" 
d="M414.5 523.5q38.5 -10.5 82.5 -32.5l-57 -377q-2 -24 -2 -31q0 -23 8 -34.5t25 -18.5l-17 -41q-35 7 -52.5 28.5t-17.5 66.5q-30 -44 -71.5 -69.5t-89.5 -25.5q-78 0 -121.5 54t-43.5 149q0 78 28 157t88.5 132t152.5 53q49 0 87.5 -10.5zM210 441q-47 -46 -69 -114
t-22 -135q0 -76 29.5 -115.5t84.5 -39.5q46 0 83.5 28.5t72.5 82.5l47 315q-50 24 -107 24q-72 0 -119 -46zM285.5 731.5q10.5 -10.5 10.5 -25.5q0 -18 -12 -30.5t-30 -12.5q-17 0 -27 10.5t-10 25.5q0 18 12 30.5t30 12.5q16 0 26.5 -10.5zM474 731.5q10 -10.5 10 -25.5
q0 -18 -12 -30.5t-30 -12.5q-16 0 -26.5 10.5t-10.5 25.5q0 18 12 30.5t30 12.5q17 0 27 -10.5z" />
    <glyph glyph-name="uni04D4" unicode="&#x4d4;" horiz-adv-x="780" 
d="M439 379h257l-7 -49h-245l33 -280h228l-8 -50h-272l-20 184h-284l-95 -184h-63l362 685h421l-14 -50h-323zM356 637l-209 -403h252z" />
    <glyph glyph-name="uni04D5" unicode="&#x4d5;" horiz-adv-x="847" 
d="M402 506.5q37 -27.5 49 -74.5q24 41 75 71.5t115 30.5q73 0 115 -35.5t42 -91.5q0 -95 -94.5 -140.5t-269.5 -59.5q0 -168 136 -168q41 0 75 13t72 40l27 -41q-42 -31 -85.5 -46.5t-92.5 -15.5q-62 0 -106 27t-65 77q-45 -56 -94 -80t-107 -24q-69 0 -108.5 37t-39.5 99
q0 77 58 128t183 51h102q12 49 24 78q-2 46 -35.5 74.5t-87.5 28.5q-61 0 -143 -29l-13 46q89 32 167 32q64 0 101 -27.5zM500 417.5q-51 -68.5 -63 -164.5q152 12 226 47.5t74 104.5q0 34 -24.5 57.5t-71.5 23.5q-90 0 -141 -68.5zM153 224q-45 -37 -45 -99q0 -43 25.5 -66
t70.5 -23q49 0 92.5 25.5t85.5 80.5q-5 25 -5 59q0 28 4 60h-88q-95 0 -140 -37z" />
    <glyph glyph-name="uni04D6" unicode="&#x4d6;" horiz-adv-x="509" 
d="M222 635l-36 -255h242l-6 -50h-242l-39 -280h293l-8 -50h-352l96 685h346l-14 -50h-280zM273 805q-32 26 -35 69l40 5q6 -27 25.5 -39.5t54.5 -12.5q75 0 100 55l38 -12q-12 -42 -49.5 -66.5t-89.5 -24.5t-84 26z" />
    <glyph glyph-name="uni04D7" unicode="&#x4d7;" horiz-adv-x="520" 
d="M386.5 266q-94.5 -47 -266.5 -60l-1 -6q0 -82 36 -121.5t98 -39.5q41 0 75.5 13t72.5 40l26 -41q-42 -31 -85.5 -46.5t-92.5 -15.5q-90 0 -140 55t-50 155q0 79 28 156t87.5 128t147.5 51q74 0 116.5 -35.5t42.5 -90.5q0 -95 -94.5 -142zM183.5 416.5
q-49.5 -69.5 -60.5 -165.5q150 12 224 49t74 106q0 34 -25 57t-75 23q-88 0 -137.5 -69.5zM249 679q-32 26 -35 69l40 5q6 -28 25.5 -40.5t54.5 -12.5q75 0 100 56l38 -12q-12 -43 -49.5 -67t-89.5 -24t-84 26z" />
    <glyph glyph-name="uni04D8" unicode="&#x4d8;" horiz-adv-x="644" 
d="M539.5 633q58.5 -63 58.5 -192q0 -42 -8 -98q-25 -177 -107 -265.5t-201 -88.5q-106 0 -164.5 65.5t-58.5 190.5q0 29 4.5 69t9.5 61l459 -2q4 35 4 71q0 105 -42 153t-123 48q-53 0 -100.5 -17.5t-97.5 -53.5l-28 41q54 42 109 61.5t119 19.5q108 0 166.5 -63z
M436.5 109q64.5 70 88.5 215l-401 -2q-6 -45 -6 -81q0 -103 42.5 -152.5t120.5 -49.5q91 0 155.5 70z" />
    <glyph glyph-name="uni04D9" unicode="&#x4d9;" horiz-adv-x="520" 
d="M411 479q50 -55 50 -156q0 -79 -28.5 -155.5t-87.5 -127.5t-147 -51q-74 0 -116.5 35.5t-42.5 90.5q0 95 94.5 142t266.5 60l1 6q0 83 -35.5 122t-98.5 39q-40 0 -74 -12.5t-74 -39.5l-26 40q42 31 85 46.5t93 15.5q90 0 140 -55zM336 106q50 70 61 166
q-150 -12 -224 -49t-74 -106q0 -34 25 -57.5t74 -23.5q88 0 138 70z" />
    <glyph glyph-name="uni04DA" unicode="&#x4da;" horiz-adv-x="644" 
d="M539.5 633q58.5 -63 58.5 -192q0 -42 -8 -98q-25 -177 -107 -265.5t-201 -88.5q-106 0 -164.5 65.5t-58.5 190.5q0 29 4.5 69t9.5 61l459 -2q4 35 4 71q0 105 -42 153t-123 48q-53 0 -100.5 -17.5t-97.5 -53.5l-28 41q54 42 109 61.5t119 19.5q108 0 166.5 -63z
M436.5 109q64.5 70 88.5 215l-401 -2q-6 -45 -6 -81q0 -103 42.5 -152.5t120.5 -49.5q91 0 155.5 70zM330 857.5q10 -10.5 10 -25.5q0 -19 -11.5 -31t-30.5 -12q-16 0 -26.5 10.5t-10.5 25.5q0 19 12.5 31t30.5 12q16 0 26 -10.5zM518.5 857.5q10.5 -10.5 10.5 -25.5
q0 -18 -12 -30.5t-30 -12.5q-16 0 -26.5 10.5t-10.5 25.5q0 19 12 31t30 12q16 0 26.5 -10.5z" />
    <glyph glyph-name="uni04DB" unicode="&#x4db;" horiz-adv-x="520" 
d="M411 479q50 -55 50 -156q0 -79 -28.5 -155.5t-87.5 -127.5t-147 -51q-74 0 -116.5 35.5t-42.5 90.5q0 95 94.5 142t266.5 60l1 6q0 83 -35.5 122t-98.5 39q-40 0 -74 -12.5t-74 -39.5l-26 40q42 31 85 46.5t93 15.5q90 0 140 -55zM336 106q50 70 61 166
q-150 -12 -224 -49t-74 -106q0 -34 25 -57.5t74 -23.5q88 0 138 70zM246.5 731.5q10.5 -10.5 10.5 -25.5q0 -18 -12 -30.5t-30 -12.5q-17 0 -27 10.5t-10 25.5q0 18 12 30.5t30 12.5q16 0 26.5 -10.5zM435 731.5q10 -10.5 10 -25.5q0 -18 -12 -30.5t-30 -12.5
q-16 0 -26.5 10.5t-10.5 25.5q0 18 12 30.5t30 12.5q17 0 27 -10.5z" />
    <glyph glyph-name="uni04DC" unicode="&#x4dc;" horiz-adv-x="774" 
d="M750.5 619q-21.5 -20 -60.5 -78l-118 -179l155 -362h-63l-142 336h-93l-47 -336h-58l47 336h-91l-233 -336h-69l255 364l-90 193q-16 35 -27 52t-23 25t-33 15l18 47q30 -10 47.5 -20.5t32 -31t32.5 -59.5l93 -199h95l43 299h57l-42 -299h89l123 187q29 43 49 66t39.5 35
t49.5 22l17 -46q-31 -11 -52.5 -31zM405 857.5q10 -10.5 10 -25.5q0 -19 -11.5 -31t-30.5 -12q-16 0 -26.5 10.5t-10.5 25.5q0 19 12.5 31t30.5 12q16 0 26 -10.5zM593.5 857.5q10.5 -10.5 10.5 -25.5q0 -18 -12 -30.5t-30 -12.5q-16 0 -26.5 10.5t-10.5 25.5q0 19 12 31
t30 12q16 0 26.5 -10.5z" />
    <glyph glyph-name="uni04DD" unicode="&#x4dd;" horiz-adv-x="700" 
d="M644.5 469.5q-15.5 -9.5 -30.5 -28t-35 -54.5l-63 -114l115 -273h-61l-103 253h-88l-36 -253h-55l36 253h-87l-175 -253h-64l195 278l-60 140q-15 35 -27.5 48t-40.5 24l18 44q39 -13 58.5 -31.5t36.5 -56.5l64 -147h88l32 224h55l-32 -224h87l69 124q30 53 56 74.5
t72 36.5l18 -45q-27 -10 -42.5 -19.5zM341.5 731.5q10.5 -10.5 10.5 -25.5q0 -18 -12 -30.5t-30 -12.5q-17 0 -27 10.5t-10 25.5q0 18 12 30.5t30 12.5q16 0 26.5 -10.5zM530 731.5q10 -10.5 10 -25.5q0 -18 -12 -30.5t-30 -12.5q-16 0 -26.5 10.5t-10.5 25.5q0 18 12 30.5
t30 12.5q17 0 27 -10.5z" />
    <glyph glyph-name="uni04DE" unicode="&#x4de;" horiz-adv-x="518" 
d="M435.5 655q45.5 -41 45.5 -109q0 -67 -40.5 -114.5t-117.5 -63.5q59 -6 96.5 -45t37.5 -107q0 -58 -30.5 -110.5t-88.5 -84.5t-137 -32q-63 0 -115.5 24t-89.5 70l40 32q61 -74 165 -74q67 0 111 28t63.5 69t19.5 80q0 60 -38.5 92t-112.5 31h-64l14 51h52q56 0 95 22
t58.5 56.5t19.5 72.5q0 47 -30.5 74.5t-89.5 27.5q-89 0 -180 -71l-31 39q52 42 105 62.5t111 20.5q86 0 131.5 -41zM273 857.5q10 -10.5 10 -25.5q0 -19 -11.5 -31t-30.5 -12q-16 0 -26.5 10.5t-10.5 25.5q0 19 12.5 31t30.5 12q16 0 26 -10.5zM461.5 857.5
q10.5 -10.5 10.5 -25.5q0 -18 -12 -30.5t-30 -12.5q-16 0 -26.5 10.5t-10.5 25.5q0 19 12 31t30 12q16 0 26.5 -10.5z" />
    <glyph glyph-name="uni04DF" unicode="&#x4df;" horiz-adv-x="474" 
d="M365 499.5q44 -34.5 44 -91.5q0 -46 -29.5 -82t-97.5 -48q56 -7 88 -37.5t32 -82.5q0 -43 -22.5 -81.5t-71.5 -63t-122 -24.5q-112 0 -184 67l34 36q31 -26 67 -40t83 -14q81 0 118 35t37 86q0 92 -139 92h-63l11 47h51q72 0 110 30t38 79q0 38 -27.5 59t-76.5 21
q-42 0 -75 -11.5t-74 -35.5l-27 38q43 28 87 42t96 14q69 0 113 -34.5zM207.5 731.5q10.5 -10.5 10.5 -25.5q0 -18 -12 -30.5t-30 -12.5q-17 0 -27 10.5t-10 25.5q0 18 12 30.5t30 12.5q16 0 26.5 -10.5zM396 731.5q10 -10.5 10 -25.5q0 -18 -12 -30.5t-30 -12.5
q-16 0 -26.5 10.5t-10.5 25.5q0 18 12 30.5t30 12.5q17 0 27 -10.5z" />
    <glyph glyph-name="uni04E2" unicode="&#x4e2;" horiz-adv-x="670" 
d="M463 0l52 366q20 144 44 259l-404 -625h-81l96 685h59l-51 -367q-21 -146 -44 -259l404 626h81l-97 -685h-59zM298 849h240l-7 -47h-240z" />
    <glyph glyph-name="uni04E3" unicode="&#x4e3;" horiz-adv-x="577" 
d="M385 0l14 133q-36 -67 -84.5 -105.5t-108.5 -38.5q-59 0 -91.5 33t-32.5 94q0 11 2 35l53 372h57l-52 -370q-2 -24 -2 -34q0 -43 19.5 -62.5t57.5 -19.5q102 0 188 166l44 320h58l-74 -523h-48zM235 723h240l-7 -47h-240z" />
    <glyph glyph-name="uni04E4" unicode="&#x4e4;" horiz-adv-x="670" 
d="M463 0l52 366q20 144 44 259l-404 -625h-81l96 685h59l-51 -367q-21 -146 -44 -259l404 626h81l-97 -685h-59zM350 857.5q10 -10.5 10 -25.5q0 -19 -11.5 -31t-30.5 -12q-16 0 -26.5 10.5t-10.5 25.5q0 19 12.5 31t30.5 12q16 0 26 -10.5zM538.5 857.5
q10.5 -10.5 10.5 -25.5q0 -18 -12 -30.5t-30 -12.5q-16 0 -26.5 10.5t-10.5 25.5q0 19 12 31t30 12q16 0 26.5 -10.5z" />
    <glyph glyph-name="uni04E5" unicode="&#x4e5;" horiz-adv-x="577" 
d="M385 0l14 133q-36 -67 -84.5 -105.5t-108.5 -38.5q-59 0 -91.5 33t-32.5 94q0 11 2 35l53 372h57l-52 -370q-2 -24 -2 -34q0 -43 19.5 -62.5t57.5 -19.5q102 0 188 166l44 320h58l-74 -523h-48zM280.5 731.5q10.5 -10.5 10.5 -25.5q0 -18 -12 -30.5t-30 -12.5
q-17 0 -27 10.5t-10 25.5q0 18 12 30.5t30 12.5q16 0 26.5 -10.5zM469 731.5q10 -10.5 10 -25.5q0 -18 -12 -30.5t-30 -12.5q-16 0 -26.5 10.5t-10.5 25.5q0 18 12 30.5t30 12.5q17 0 27 -10.5z" />
    <glyph glyph-name="uni04E6" unicode="&#x4e6;" horiz-adv-x="688" 
d="M577 625.5q63 -70.5 63 -201.5q0 -100 -33 -200t-107.5 -167.5t-190.5 -67.5q-110 0 -174 71t-64 202q0 97 34 197t109 168.5t190 68.5q110 0 173 -70.5zM245 583.5q-60 -61.5 -86 -150.5t-26 -177q0 -107 47 -161.5t130 -54.5q98 0 158 62t85 151.5t25 178.5
q0 106 -46 159.5t-131 53.5q-96 0 -156 -61.5zM352 857.5q10 -10.5 10 -25.5q0 -19 -11.5 -31t-30.5 -12q-16 0 -26.5 10.5t-10.5 25.5q0 19 12.5 31t30.5 12q16 0 26 -10.5zM540.5 857.5q10.5 -10.5 10.5 -25.5q0 -18 -12 -30.5t-30 -12.5q-16 0 -26.5 10.5t-10.5 25.5
q0 19 12 31t30 12q16 0 26.5 -10.5z" />
    <glyph glyph-name="uni04E7" unicode="&#x4e7;" horiz-adv-x="569" 
d="M460.5 479q49.5 -55 49.5 -155q0 -74 -26 -151t-84.5 -130.5t-150.5 -53.5q-91 0 -140.5 56t-49.5 156q0 75 26.5 151.5t85 129t150.5 52.5q90 0 139.5 -55zM202 439.5q-45 -46.5 -64 -113.5t-19 -130q0 -78 33.5 -118t97.5 -40q71 0 115.5 46t64 113t19.5 131
q0 78 -33.5 118t-96.5 40q-72 0 -117 -46.5zM274.5 731.5q10.5 -10.5 10.5 -25.5q0 -18 -12 -30.5t-30 -12.5q-17 0 -27 10.5t-10 25.5q0 18 12 30.5t30 12.5q16 0 26.5 -10.5zM463 731.5q10 -10.5 10 -25.5q0 -18 -12 -30.5t-30 -12.5q-16 0 -26.5 10.5t-10.5 25.5
q0 18 12 30.5t30 12.5q17 0 27 -10.5z" />
    <glyph glyph-name="uni04E8" unicode="&#x4e8;" horiz-adv-x="688" 
d="M576.5 625.5q63.5 -70.5 63.5 -202.5q0 -32 -7 -86q-15 -109 -60 -187.5t-113 -119.5t-151 -41q-110 0 -174 71t-64 201q0 39 6 82q16 111 61.5 190.5t114 121t149.5 41.5q111 0 174.5 -70.5zM238 576.5q-68 -68.5 -94 -203.5h433q2 21 2 58q0 108 -46.5 161t-131.5 53
q-95 0 -163 -68.5zM479 112q68 72 91 214h-434q-4 -33 -4 -70q0 -107 47.5 -161.5t130.5 -54.5q101 0 169 72z" />
    <glyph glyph-name="uni04E9" unicode="&#x4e9;" horiz-adv-x="569" 
d="M460.5 479q49.5 -55 49.5 -155q0 -74 -26 -151t-84.5 -130.5t-150.5 -53.5q-91 0 -140.5 56t-49.5 156q0 75 26.5 151.5t85 129t150.5 52.5q90 0 139.5 -55zM193 429q-46 -57 -63 -140h317q2 17 2 39q0 78 -33.5 118t-96.5 40q-80 0 -126 -57zM377.5 97q46.5 59 63.5 145
h-319q-3 -24 -3 -46q0 -78 33.5 -118t97.5 -40q81 0 127.5 59z" />
    <glyph glyph-name="uni04EA" unicode="&#x4ea;" horiz-adv-x="688" 
d="M576.5 625.5q63.5 -70.5 63.5 -202.5q0 -32 -7 -86q-15 -109 -60 -187.5t-113 -119.5t-151 -41q-110 0 -174 71t-64 201q0 39 6 82q16 111 61.5 190.5t114 121t149.5 41.5q111 0 174.5 -70.5zM238 576.5q-68 -68.5 -94 -203.5h433q2 21 2 58q0 108 -46.5 161t-131.5 53
q-95 0 -163 -68.5zM479 112q68 72 91 214h-434q-4 -33 -4 -70q0 -107 47.5 -161.5t130.5 -54.5q101 0 169 72zM359 857.5q10 -10.5 10 -25.5q0 -19 -11.5 -31t-30.5 -12q-16 0 -26.5 10.5t-10.5 25.5q0 19 12.5 31t30.5 12q16 0 26 -10.5zM547.5 857.5
q10.5 -10.5 10.5 -25.5q0 -18 -12 -30.5t-30 -12.5q-16 0 -26.5 10.5t-10.5 25.5q0 19 12 31t30 12q16 0 26.5 -10.5z" />
    <glyph glyph-name="uni04EB" unicode="&#x4eb;" horiz-adv-x="569" 
d="M460.5 479q49.5 -55 49.5 -155q0 -74 -26 -151t-84.5 -130.5t-150.5 -53.5q-91 0 -140.5 56t-49.5 156q0 75 26.5 151.5t85 129t150.5 52.5q90 0 139.5 -55zM193 429q-46 -57 -63 -140h317q2 17 2 39q0 78 -33.5 118t-96.5 40q-80 0 -126 -57zM377.5 97q46.5 59 63.5 145
h-319q-3 -24 -3 -46q0 -78 33.5 -118t97.5 -40q81 0 127.5 59zM274.5 731.5q10.5 -10.5 10.5 -25.5q0 -18 -12 -30.5t-30 -12.5q-17 0 -27 10.5t-10 25.5q0 18 12 30.5t30 12.5q16 0 26.5 -10.5zM463 731.5q10 -10.5 10 -25.5q0 -18 -12 -30.5t-30 -12.5q-16 0 -26.5 10.5
t-10.5 25.5q0 18 12 30.5t30 12.5q17 0 27 -10.5z" />
    <glyph glyph-name="uni04EC" unicode="&#x4ec;" horiz-adv-x="534" 
d="M431.5 633.5q54.5 -62.5 54.5 -191.5q0 -107 -28.5 -210t-97 -173t-178.5 -70q-60 0 -102 20t-77 54l36 38q32 -30 63.5 -44.5t79.5 -14.5q103 0 159 83t75 205h-281l7 51h280q3 35 3 65q0 102 -38.5 150.5t-108.5 48.5q-48 0 -85 -12.5t-84 -43.5l-28 39q47 34 95.5 51
t104.5 17q96 0 150.5 -62.5zM242 857.5q10 -10.5 10 -25.5q0 -19 -11.5 -31t-30.5 -12q-16 0 -26.5 10.5t-10.5 25.5q0 19 12.5 31t30.5 12q16 0 26 -10.5zM430.5 857.5q10.5 -10.5 10.5 -25.5q0 -18 -12 -30.5t-30 -12.5q-16 0 -26.5 10.5t-10.5 25.5q0 19 12 31t30 12
q16 0 26.5 -10.5z" />
    <glyph glyph-name="uni04ED" unicode="&#x4ed;" horiz-adv-x="471" 
d="M366 481q47 -53 47 -147q0 -34 -6 -73q-17 -130 -79.5 -201t-162.5 -71q-50 0 -88 16t-70 44l33 36q27 -23 55.5 -35t67.5 -12q72 0 118 52.5t64 156.5h-233l7 46h232q3 24 3 44q0 73 -31 111t-90 38q-38 0 -70.5 -11t-67.5 -34l-25 38q79 55 165 55q84 0 131 -53z
M203.5 731.5q10.5 -10.5 10.5 -25.5q0 -18 -12 -30.5t-30 -12.5q-17 0 -27 10.5t-10 25.5q0 18 12 30.5t30 12.5q16 0 26.5 -10.5zM392 731.5q10 -10.5 10 -25.5q0 -18 -12 -30.5t-30 -12.5q-16 0 -26.5 10.5t-10.5 25.5q0 18 12 30.5t30 12.5q17 0 27 -10.5z" />
    <glyph glyph-name="uni04EE" unicode="&#x4ee;" horiz-adv-x="516" 
d="M232 79q-30 -37 -66 -56.5t-96 -33.5l-7 45q48 12 76 27.5t52 45t54 86.5l-19 -1l-158 493h61l138 -454l243 454h63l-272 -497q-39 -72 -69 -109zM226 849h240l-7 -47h-240z" />
    <glyph glyph-name="uni04EF" unicode="&#x4ef;" horiz-adv-x="465" 
d="M142 -140q-53 -46 -147 -64l-3 45q53 13 85.5 32.5t54.5 48t48 79.5l-21 -1l-107 523h61l90 -479l223 479h61l-249 -527q-43 -90 -96 -136zM173 723h240l-7 -47h-240z" />
    <glyph glyph-name="uni04F0" unicode="&#x4f0;" horiz-adv-x="516" 
d="M232 79q-30 -37 -66 -56.5t-96 -33.5l-7 45q48 12 76 27.5t52 45t54 86.5l-19 -1l-158 493h61l138 -454l243 454h63l-272 -497q-39 -72 -69 -109zM278 857.5q10 -10.5 10 -25.5q0 -19 -11.5 -31t-30.5 -12q-16 0 -26.5 10.5t-10.5 25.5q0 19 12.5 31t30.5 12
q16 0 26 -10.5zM466.5 857.5q10.5 -10.5 10.5 -25.5q0 -18 -12 -30.5t-30 -12.5q-16 0 -26.5 10.5t-10.5 25.5q0 19 12 31t30 12q16 0 26.5 -10.5z" />
    <glyph glyph-name="uni04F1" unicode="&#x4f1;" horiz-adv-x="465" 
d="M142 -140q-53 -46 -147 -64l-3 45q53 13 85.5 32.5t54.5 48t48 79.5l-21 -1l-107 523h61l90 -479l223 479h61l-249 -527q-43 -90 -96 -136zM217.5 731.5q10.5 -10.5 10.5 -25.5q0 -18 -12 -30.5t-30 -12.5q-17 0 -27 10.5t-10 25.5q0 18 12 30.5t30 12.5q16 0 26.5 -10.5
zM406 731.5q10 -10.5 10 -25.5q0 -18 -12 -30.5t-30 -12.5q-16 0 -26.5 10.5t-10.5 25.5q0 18 12 30.5t30 12.5q17 0 27 -10.5z" />
    <glyph glyph-name="uni04F2" unicode="&#x4f2;" horiz-adv-x="516" 
d="M232 79q-30 -37 -66 -56.5t-96 -33.5l-7 45q48 12 76 27.5t52 45t54 86.5l-19 -1l-158 493h61l138 -454l243 454h63l-272 -497q-39 -72 -69 -109zM369 768l-36 18l99 151l49 -27zM249 773l-36 17l90 147l49 -27z" />
    <glyph glyph-name="uni04F3" unicode="&#x4f3;" horiz-adv-x="465" 
d="M142 -140q-53 -46 -147 -64l-3 45q53 13 85.5 32.5t54.5 48t48 79.5l-21 -1l-107 523h61l90 -479l223 479h61l-249 -527q-43 -90 -96 -136zM356 642l-36 18l99 151l49 -27zM236 647l-36 17l90 147l49 -28z" />
    <glyph glyph-name="uni04F4" unicode="&#x4f4;" horiz-adv-x="591" 
d="M444 0h-60l41 292q-45 -35 -90 -52t-98 -17q-79 0 -125.5 43.5t-46.5 118.5q0 12 2 36l37 264h60l-37 -264q-2 -20 -2 -31q0 -56 32.5 -85t93.5 -29q54 0 101.5 21t81.5 56l47 332h59zM278 857.5q10 -10.5 10 -25.5q0 -19 -11.5 -31t-30.5 -12q-16 0 -26.5 10.5
t-10.5 25.5q0 19 12.5 31t30.5 12q16 0 26 -10.5zM466.5 857.5q10.5 -10.5 10.5 -25.5q0 -18 -12 -30.5t-30 -12.5q-16 0 -26.5 10.5t-10.5 25.5q0 19 12 31t30 12q16 0 26.5 -10.5z" />
    <glyph glyph-name="uni04F5" unicode="&#x4f5;" horiz-adv-x="538" 
d="M338 0l36 253q-73 -79 -173 -79q-62 0 -98 32.5t-36 92.5q0 9 2 31l28 193h58l-28 -190q-2 -20 -2 -28q0 -82 90 -84q46 0 90.5 25.5t76.5 69.5l30 207h57l-74 -523h-57zM235.5 731.5q10.5 -10.5 10.5 -25.5q0 -18 -12 -30.5t-30 -12.5q-17 0 -27 10.5t-10 25.5
q0 18 12 30.5t30 12.5q16 0 26.5 -10.5zM424 731.5q10 -10.5 10 -25.5q0 -18 -12 -30.5t-30 -12.5q-16 0 -26.5 10.5t-10.5 25.5q0 18 12 30.5t30 12.5q17 0 27 -10.5z" />
    <glyph glyph-name="uni04F6" unicode="&#x4f6;" horiz-adv-x="506" 
d="M141 51h71l-28 -196h-46l8 145h-72l96 685l2 -1l-1 1h385l-17 -53h-317z" />
    <glyph glyph-name="uni04F7" unicode="&#x4f7;" horiz-adv-x="461" 
d="M219 -10l-18 -135h-44l8 136q-61 9 -98.5 44t-37.5 90q0 58 42.5 100.5t149.5 71.5q82 22 108.5 50t26.5 65q0 34 -26.5 54t-69.5 20q-38 0 -72 -12t-71 -38l-27 39q83 59 174 59q68 0 110 -34t42 -88q0 -53 -35 -93t-134 -66q-67 -18 -101 -38.5t-45 -41.5t-11 -48
q0 -40 30.5 -63t80.5 -23q91 0 168 56l30 -39q-79 -60 -180 -66z" />
    <glyph glyph-name="uni04F8" unicode="&#x4f8;" horiz-adv-x="794" 
d="M452.5 377q57.5 -46 57.5 -137q0 -62 -27.5 -116.5t-89.5 -89t-161 -34.5h-158l96 685h59l-36 -262h97q105 0 162.5 -46zM646 0h-59l96 685h60zM400 107q47 57 47 133q0 70 -40.5 102t-118.5 32h-102l-45 -324h104q108 0 155 57zM413 857.5q10 -10.5 10 -25.5
q0 -19 -11.5 -31t-30.5 -12q-16 0 -26.5 10.5t-10.5 25.5q0 19 12.5 31t30.5 12q16 0 26 -10.5zM601.5 857.5q10.5 -10.5 10.5 -25.5q0 -18 -12 -30.5t-30 -12.5q-16 0 -26.5 10.5t-10.5 25.5q0 19 12 31t30 12q16 0 26.5 -10.5z" />
    <glyph glyph-name="uni04F9" unicode="&#x4f9;" horiz-adv-x="711" 
d="M398 306.5q45 -40.5 45 -108.5q0 -53 -23 -100.5t-73 -78t-125 -30.5q-72 0 -151 27l72 507h57l-25 -176h86q92 0 137 -40.5zM508 0l77 523h57l-74 -523h-60zM344 85q39 48 39 114q0 101 -126 101h-89l-35 -249q50 -14 87 -14q85 0 124 48zM344.5 731.5
q10.5 -10.5 10.5 -25.5q0 -18 -12 -30.5t-30 -12.5q-17 0 -27 10.5t-10 25.5q0 18 12 30.5t30 12.5q16 0 26.5 -10.5zM533 731.5q10 -10.5 10 -25.5q0 -18 -12 -30.5t-30 -12.5q-16 0 -26.5 10.5t-10.5 25.5q0 18 12 30.5t30 12.5q17 0 27 -10.5z" />
    <glyph glyph-name="uni051C" unicode="&#x51c;" horiz-adv-x="807" 
d="M515 0l-62 618l-236 -618h-73l-54 685h59l41 -628l238 628h67l64 -629l220 629h57l-247 -685h-74z" />
    <glyph glyph-name="uni051D" unicode="&#x51d;" horiz-adv-x="696" 
d="M429 0l-49 469l-183 -469h-77l-57 523h57l45 -478l188 478h68l51 -479l178 479h57l-200 -523h-78z" />
    <glyph glyph-name="uni0524" unicode="&#x524;" horiz-adv-x="662" 
d="M593 51l-28 -196h-45l7 145h-72l89 633h-322l-89 -633h-59l96 685h441l-89 -634h71z" />
    <glyph glyph-name="uni0525" unicode="&#x525;" horiz-adv-x="582" 
d="M488 -145h-45l7 145h-68l67 474h-256l-67 -474h-57l74 523h371l-67 -474h68z" />
    <glyph glyph-name="uni0526" unicode="&#x526;" horiz-adv-x="591" 
d="M559 -145h-46l8 145h-72l34 240q3 18 3 35q0 109 -123 109q-55 0 -100.5 -23t-88.5 -69l-41 -292h-59l96 685h59l-46 -327q41 39 87 59t104 20q84 0 128 -42t44 -117q0 -21 -4 -41l-26 -186h71z" />
    <glyph glyph-name="uni0527" unicode="&#x527;" horiz-adv-x="571" 
d="M490 -145h-45l7 145h-66l44 307q3 21 3 36q0 44 -20.5 63t-61.5 19q-52 0 -99.5 -46.5t-89.5 -125.5l-36 -253h-57l104 736l58 7l-58 -408q37 65 88 102t107 37q60 0 91.5 -32.5t31.5 -92.5q0 -17 -3 -37l-37 -263h66z" />
    <glyph glyph-name="Wgrave" unicode="&#x1e80;" horiz-adv-x="807" 
d="M515 0l-62 618l-236 -618h-73l-54 685h59l41 -628l238 628h67l64 -629l220 629h57l-247 -685h-74zM566 758l-187 78l33 52l174 -96z" />
    <glyph glyph-name="wgrave" unicode="&#x1e81;" horiz-adv-x="696" 
d="M429 0l-49 469l-183 -469h-77l-57 523h57l45 -478l188 478h68l51 -479l178 479h57l-200 -523h-78zM497 645l-183 85l33 52l172 -104z" />
    <glyph glyph-name="Wacute" unicode="&#x1e82;" horiz-adv-x="807" 
d="M515 0l-62 618l-236 -618h-73l-54 685h59l41 -628l238 628h67l64 -629l220 629h57l-247 -685h-74zM384 758l-11 34l199 96l20 -52z" />
    <glyph glyph-name="wacute" unicode="&#x1e83;" horiz-adv-x="696" 
d="M429 0l-49 469l-183 -469h-77l-57 523h57l45 -478l188 478h68l51 -479l178 479h57l-200 -523h-78zM304 645l-14 34l201 103l19 -52z" />
    <glyph glyph-name="Wdieresis" unicode="&#x1e84;" horiz-adv-x="807" 
d="M515 0l-62 618l-236 -618h-73l-54 685h59l41 -628l238 628h67l64 -629l220 629h57l-247 -685h-74zM418 857.5q10 -10.5 10 -25.5q0 -19 -11.5 -31t-30.5 -12q-16 0 -26.5 10.5t-10.5 25.5q0 19 12.5 31t30.5 12q16 0 26 -10.5zM606.5 857.5q10.5 -10.5 10.5 -25.5
q0 -18 -12 -30.5t-30 -12.5q-16 0 -26.5 10.5t-10.5 25.5q0 19 12 31t30 12q16 0 26.5 -10.5z" />
    <glyph glyph-name="wdieresis" unicode="&#x1e85;" horiz-adv-x="696" 
d="M429 0l-49 469l-183 -469h-77l-57 523h57l45 -478l188 478h68l51 -479l178 479h57l-200 -523h-78zM337.5 731.5q10.5 -10.5 10.5 -25.5q0 -18 -12 -30.5t-30 -12.5q-17 0 -27 10.5t-10 25.5q0 18 12 30.5t30 12.5q16 0 26.5 -10.5zM526 731.5q10 -10.5 10 -25.5
q0 -18 -12 -30.5t-30 -12.5q-16 0 -26.5 10.5t-10.5 25.5q0 18 12 30.5t30 12.5q17 0 27 -10.5z" />
    <glyph glyph-name="Ygrave" unicode="&#x1ef2;" horiz-adv-x="520" 
d="M254 0h-60l38 267l-159 418h63l131 -363l233 363h67l-275 -417zM421 758l-187 78l33 52l174 -96z" />
    <glyph glyph-name="ygrave" unicode="&#x1ef3;" horiz-adv-x="465" 
d="M142 -140q-53 -46 -147 -64l-3 45q53 13 85.5 32.5t54.5 48t48 79.5l-21 -1l-107 523h61l90 -479l223 479h61l-249 -527q-43 -90 -96 -136zM377 645l-183 85l33 52l172 -104z" />
    <glyph glyph-name="uni1F70" unicode="&#x1f70;" horiz-adv-x="593" 
d="M398 491.5q36 -42.5 40 -148.5l62 180h56l-96 -261l6 -172q1 -22 9 -32.5t25 -16.5l-24 -49q-28 6 -46 25.5t-18 55.5l-1 104q-36 -95 -84.5 -141.5t-115.5 -46.5q-74 0 -114 49.5t-40 145.5q0 79 24 159.5t76 135.5t131 55q74 0 110 -42.5zM193.5 436.5
q-39.5 -49.5 -57.5 -120t-18 -136.5q0 -143 99 -143q55 0 102.5 51.5t90.5 181.5q-4 85 -17.5 132t-37.5 65.5t-63 18.5q-59 0 -98.5 -49.5zM416 645l-183 85l33 52l172 -104z" />
    <glyph glyph-name="uni1F71" unicode="&#x1f71;" horiz-adv-x="593" 
d="M398 491.5q36 -42.5 40 -148.5l62 180h56l-96 -261l6 -172q1 -22 9 -32.5t25 -16.5l-24 -49q-28 6 -46 25.5t-18 55.5l-1 104q-36 -95 -84.5 -141.5t-115.5 -46.5q-74 0 -114 49.5t-40 145.5q0 79 24 159.5t76 135.5t131 55q74 0 110 -42.5zM193.5 436.5
q-39.5 -49.5 -57.5 -120t-18 -136.5q0 -143 99 -143q55 0 102.5 51.5t90.5 181.5q-4 85 -17.5 132t-37.5 65.5t-63 18.5q-59 0 -98.5 -49.5zM222 645l-14 34l201 103l19 -52z" />
    <glyph glyph-name="uni1F72" unicode="&#x1f72;" horiz-adv-x="464" 
d="M451 483l-33 -35q-50 39 -118 39q-72 0 -104.5 -32t-32.5 -71q0 -40 29 -63.5t81 -23.5h60l-14 -47h-54q-87 0 -121.5 -34t-34.5 -83q0 -46 31 -70.5t88 -24.5q46 0 80 12.5t76 40.5l27 -39q-85 -63 -187 -63q-80 0 -128.5 38.5t-48.5 102.5q0 55 35 97.5t118 50.5
q-45 9 -70 37.5t-25 67.5q0 66 51 108.5t140 42.5q92 0 155 -51zM397 645l-183 85l33 52l172 -104z" />
    <glyph glyph-name="uni1F73" unicode="&#x1f73;" horiz-adv-x="464" 
d="M451 483l-33 -35q-50 39 -118 39q-72 0 -104.5 -32t-32.5 -71q0 -40 29 -63.5t81 -23.5h60l-14 -47h-54q-87 0 -121.5 -34t-34.5 -83q0 -46 31 -70.5t88 -24.5q46 0 80 12.5t76 40.5l27 -39q-85 -63 -187 -63q-80 0 -128.5 38.5t-48.5 102.5q0 55 35 97.5t118 50.5
q-45 9 -70 37.5t-25 67.5q0 66 51 108.5t140 42.5q92 0 155 -51zM204 645l-14 34l201 103l19 -52z" />
    <glyph glyph-name="uni1F74" unicode="&#x1f74;" horiz-adv-x="585" 
d="M470 501.5q33 -32.5 33 -92.5q0 -17 -3 -37l-83 -571l-56 -8l81 574q3 21 3 36q0 44 -20.5 64t-60.5 20q-52 0 -99 -44t-92 -135l-43 -308h-58l51 357q7 50 7 90t-7 78l52 5q9 -36 9 -70q0 -31 -4 -68q40 72 90 107t105 35q62 0 95 -32.5zM433 645l-183 85l33 52
l172 -104z" />
    <glyph glyph-name="uni1F75" unicode="&#x1f75;" horiz-adv-x="585" 
d="M470 501.5q33 -32.5 33 -92.5q0 -17 -3 -37l-83 -571l-56 -8l81 574q3 21 3 36q0 44 -20.5 64t-60.5 20q-52 0 -99 -44t-92 -135l-43 -308h-58l51 357q7 50 7 90t-7 78l52 5q9 -36 9 -70q0 -31 -4 -68q40 72 90 107t105 35q62 0 95 -32.5zM240 645l-14 34l201 103l19 -52
z" />
    <glyph glyph-name="uni1F76" unicode="&#x1f76;" horiz-adv-x="261" 
d="M135 93q0 -23 8.5 -35.5t29.5 -22.5l-23 -43q-39 12 -55.5 34t-16.5 61q0 22 2 34l57 402h57l-57 -401q-2 -22 -2 -29zM278 645l-183 85l33 52l172 -104z" />
    <glyph glyph-name="uni1F77" unicode="&#x1f77;" horiz-adv-x="261" 
d="M135 93q0 -23 8.5 -35.5t29.5 -22.5l-23 -43q-39 12 -55.5 34t-16.5 61q0 22 2 34l57 402h57l-57 -401q-2 -22 -2 -29zM85 645l-14 34l201 103l19 -52z" />
    <glyph glyph-name="uni1F78" unicode="&#x1f78;" horiz-adv-x="569" 
d="M460.5 479q49.5 -55 49.5 -155q0 -74 -26 -151t-84.5 -130.5t-150.5 -53.5q-91 0 -140.5 56t-49.5 156q0 75 26.5 151.5t85 129t150.5 52.5q90 0 139.5 -55zM202 439.5q-45 -46.5 -64 -113.5t-19 -130q0 -78 33.5 -118t97.5 -40q71 0 115.5 46t64 113t19.5 131
q0 78 -33.5 118t-96.5 40q-72 0 -117 -46.5zM432 645l-183 85l33 52l172 -104z" />
    <glyph glyph-name="uni1F79" unicode="&#x1f79;" horiz-adv-x="569" 
d="M460.5 479q49.5 -55 49.5 -155q0 -74 -26 -151t-84.5 -130.5t-150.5 -53.5q-91 0 -140.5 56t-49.5 156q0 75 26.5 151.5t85 129t150.5 52.5q90 0 139.5 -55zM202 439.5q-45 -46.5 -64 -113.5t-19 -130q0 -78 33.5 -118t97.5 -40q71 0 115.5 46t64 113t19.5 131
q0 78 -33.5 118t-96.5 40q-72 0 -117 -46.5zM239 645l-14 34l201 103l19 -52z" />
    <glyph glyph-name="uni1F7A" unicode="&#x1f7a;" horiz-adv-x="561" 
d="M491 413q0 -181 -58 -302.5t-199 -121.5q-78 0 -113.5 41t-35.5 102q0 11 2 31l51 360h57l-50 -361q-2 -18 -2 -28q0 -44 22 -70t73 -26q110 0 152.5 112.5t42.5 269.5q0 55 -3 103h56q5 -58 5 -110zM429 645l-183 85l33 52l172 -104z" />
    <glyph glyph-name="uni1F7B" unicode="&#x1f7b;" horiz-adv-x="561" 
d="M491 413q0 -181 -58 -302.5t-199 -121.5q-78 0 -113.5 41t-35.5 102q0 11 2 31l51 360h57l-50 -361q-2 -18 -2 -28q0 -44 22 -70t73 -26q110 0 152.5 112.5t42.5 269.5q0 55 -3 103h56q5 -58 5 -110zM236 645l-14 34l201 103l19 -52z" />
    <glyph glyph-name="uni1F7C" unicode="&#x1f7c;" horiz-adv-x="772" 
d="M699 337q0 -144 -50.5 -246t-161.5 -102q-57 0 -89.5 31t-30.5 93q-38 -124 -152 -124q-68 0 -107 44.5t-39 135.5q0 164 102 354h58q-102 -200 -102 -356q0 -129 95 -129q104 0 125 143l24 172l58 8l-26 -184q-3 -24 -3 -42q0 -97 83 -97q87 0 122.5 91t35.5 215
q0 89 -23 179h57q24 -92 24 -186zM535 645l-183 85l33 52l172 -104z" />
    <glyph glyph-name="uni1F7D" unicode="&#x1f7d;" horiz-adv-x="772" 
d="M699 337q0 -144 -50.5 -246t-161.5 -102q-57 0 -89.5 31t-30.5 93q-38 -124 -152 -124q-68 0 -107 44.5t-39 135.5q0 164 102 354h58q-102 -200 -102 -356q0 -129 95 -129q104 0 125 143l24 172l58 8l-26 -184q-3 -24 -3 -42q0 -97 83 -97q87 0 122.5 91t35.5 215
q0 89 -23 179h57q24 -92 24 -186zM342 645l-14 34l201 103l19 -52z" />
    <glyph glyph-name="uni1FB0" unicode="&#x1fb0;" horiz-adv-x="593" 
d="M398 491.5q36 -42.5 40 -148.5l62 180h56l-96 -261l6 -172q1 -22 9 -32.5t25 -16.5l-24 -49q-28 6 -46 25.5t-18 55.5l-1 104q-36 -95 -84.5 -141.5t-115.5 -46.5q-74 0 -114 49.5t-40 145.5q0 79 24 159.5t76 135.5t131 55q74 0 110 -42.5zM193.5 436.5
q-39.5 -49.5 -57.5 -120t-18 -136.5q0 -143 99 -143q55 0 102.5 51.5t90.5 181.5q-4 85 -17.5 132t-37.5 65.5t-63 18.5q-59 0 -98.5 -49.5zM239 684q-32 31 -32 81l41 6q9 -71 76 -71q36 0 63 19t41 54l38 -12q-13 -49 -52.5 -78.5t-90.5 -29.5q-52 0 -84 31z" />
    <glyph glyph-name="uni1FB1" unicode="&#x1fb1;" horiz-adv-x="593" 
d="M398 491.5q36 -42.5 40 -148.5l62 180h56l-96 -261l6 -172q1 -22 9 -32.5t25 -16.5l-24 -49q-28 6 -46 25.5t-18 55.5l-1 104q-36 -95 -84.5 -141.5t-115.5 -46.5q-74 0 -114 49.5t-40 145.5q0 79 24 159.5t76 135.5t131 55q74 0 110 -42.5zM193.5 436.5
q-39.5 -49.5 -57.5 -120t-18 -136.5q0 -143 99 -143q55 0 102.5 51.5t90.5 181.5q-4 85 -17.5 132t-37.5 65.5t-63 18.5q-59 0 -98.5 -49.5zM211 723h240l-7 -47h-240z" />
    </font>
</defs>
</svg>
